Sign Up   |   Sign In  
Young SheldonTrackerThe Name of the RoseTMZ Presents: The Downfall of DiddyThe SummitMad Max: Fury RoadDevil in the FleshThe Green VeilBob's BurgersBodkinQueen of the GypsiesGolden KamuyThe SimpsonsThe EqualizerCSI: VegasBaby DriverChallengersTales of Ordinary MadnessThe SympathizerKrapopolisThe Great NorthTriple FrontierA Walk Among the TombstonesDawn of the Planet of the ApesBeacon 23

Announcements

05/10

2024

1

Comments

A Gentleman in Moscow S01E07 An Assembly 720p PMTP WEB-DL DDP5 1 x264-NTb
[RR/NF/CU]
Size: 1.1GB mkv H264 (HIGH) / EAC3  HD  1280x720

A Gentleman in Moscow
File Information
[img]http://lookpic.com/cdn/i2/t/0510202408304706-1.jpg[/img]
[img]http://lookpic.com/cdn/i2/t/0510202408304706-2.jpg[/img]
[img]http://lookpic.com/cdn/i2/t/0510202408304706-3.jpg[/img]

General
Unique ID                                : 237029468412788966324415443831527249923 (0xB252371042394D3491FA97A4909F1803)
Complete name                            : A Gentleman in Moscow S01E07 An Assembly 720p PMTP WEB-DL DDP5 1 x264-NTb.mkv
Format                                   : Matroska
Format version                           : Version 4
File size                                : 1.07 GiB
Duration                                 : 42 min 37 s
Overall bit rate                         : 3 580 kb/s
Frame rate                               : 23.976 FPS
Writing application                      : mkvmerge v81.0 ('Milliontown') 64-bit
Writing library                          : libebml v1.4.4 + libmatroska v1.7.1

Video
ID                                       : 1
Format                                   : AVC
Format/Info                              : Advanced Video Codec
Format profile                           : High@L4
Format settings                          : CABAC / 5 Ref Frames
Format settings, CABAC                   : Yes
Format settings, Reference frames        : 5 frames
Codec ID                                 : V_MPEG4/ISO/AVC
Duration                                 : 42 min 37 s
Bit rate                                 : 3 000 kb/s
Width                                    : 1 280 pixels
Height                                   : 720 pixels
Display aspect ratio                     : 16:9
Frame rate mode                          : Constant
Frame rate                               : 23.976 (24000/1001) FPS
Color space                              : YUV
Chroma subsampling                       : 4:2:0
Bit depth                                : 8 bits
Scan type                                : Progressive
Bits/(Pixel*Frame)                       : 0.136
Stream size                              : 896 MiB (82%)
Writing library                          : x264 core 164 r3107 a8b68eb
 Encoding settings                        : cabac=1 / ref=5 / deblock=1:0:0 / analyse=0x3:0x113 / me=hex / subme=8 / psy=1 / psy_rd=1.00:0.00 / mixed_ref=1 / me_range=16 / chroma_me=1 / trellis=2 / 8x8dct=1 / cqm=0 / deadz / fast pskip=1 / chroma_qp_offset=-2 / threads=22 / lookahead_threads=3 / sliced_threads=0 / nr=0 / decimate=1 / interlaced=0 / bluray_compat=0 / stitchable=1 / c / bframes=3 / b_pyramid=2 / b_adapt=1 / b_bias=0 / direct=3 / weightb=1 / open_gop=0 / weightp=2 / keyint=48 / keyint_min=4 / scenecut=0 / intra_refresh=0 / rc_lookahead=48 / rc=2pass / mbtree=1 / bitrate=3000 / ratetol=1.0 / qcomp=0.60 / qpmin=0 / qpmax=69 / qpstep=4 / cplxblur=20.0 / qblur=0.5 / vbv_maxrate=3600 / vbv_bufsize=3000 / nal_hrd=none / filler=0 / ip_ratio=1.40 / aq=1:1.00
Default                                  : Yes
Forced                                   : No
Color range                              : Limited
Matrix coefficients                      : BT.709

Audio
ID                                       : 2
Format                                   : E-AC-3
Format/Info                              : Enhanced AC-3
Commercial name                          : Dolby Digital Plus
Codec ID                                 : A_EAC3
Duration                                 : 42 min 37 s
Bit rate mode                            : Constant
Bit rate                                 : 640 kb/s
Channel(s)                               : 6 channels
Channel layout                           : L R C LFE Ls Rs
Sampling rate                            : 48.0 kHz
Frame rate                               : 31.250 FPS (1536 SPF)
Compression mode                         : Lossy
Stream size                              : 195 MiB (18%)
Language                                 : English
Service kind                             : Complete Main
Default                                  : Yes
Forced                                   : No

Text #1
ID                                       : 3
Format                                   : UTF-8
Codec ID                                 : S_TEXT/UTF8
Codec ID/Info                            : UTF-8 Plain Text
Duration                                 : 41 min 38 s
Bit rate                                 : 53 b/s
Frame rate                               : 0.214 FPS
Count of elements                        : 534
Stream size                              : 16.4 KiB (0%)
Language                                 : English (US)
Default                                  : No
Forced                                   : No

Text #2
ID                                       : 4
Format                                   : UTF-8
Codec ID                                 : S_TEXT/UTF8
Codec ID/Info                            : UTF-8 Plain Text
Duration                                 : 42 min 10 s
Bit rate                                 : 60 b/s
Frame rate                               : 0.255 FPS
Count of elements                        : 645
Stream size                              : 18.7 KiB (0%)
Title                                    : SDH
Language                                 : English (US)
Default                                  : No
Forced                                   : No

Menu
00:00:00.000                             : Recap
00:00:53.000                             : Chapter 1
00:03:07.000                             : Intro
00:03:45.000                             : Chapter 2



Download
File Container: MKV
Video/Audio Codec: H264 (HIGH) EAC3
Video Resolution: 1280x720

1 Response to "[RR/NF/CU] A Gentleman in Moscow S01E07 An Assembly 720p PMTP WEB-DL DDP5 1 x264-NTb (1.1GB)"
05/10/24
08:58:36
ReadyPlayerOne

Thank You

Please Login to post a comment.
If you don't have any account, please Register.
  • Subscribe my Feeds
  • Facebook
Encoding Queue:  x264  x265

Latest Episodes

Popular Movies and TV Shows

  • Young Sheldon
  • Tracker
  • The Name of the Rose
  • TMZ Presents: The Downfall of Diddy
  • The Summit
  • Mad Max: Fury Road
  • Devil in the Flesh
  • The Green Veil
  • Bob's Burgers
  • Bodkin
  • Queen of the Gypsies
  • Golden Kamuy
  • The Simpsons
  • The Equalizer
  • CSI: Vegas
  • Baby Driver
  • Challengers
  • Tales of Ordinary Madness
  • The Sympathizer
  • Krapopolis
  • The Great North
  • Triple Frontier
  • A Walk Among the Tombstones
  • Dawn of the Planet of the Apes
  • Beacon 23

Recent Comments

  • Bud: Is the search engine down for everyone, or just me? It just says 'You're forbidden!' whenever I lo...
  • 23d1:

    not episode 4 it is episode 3

  • 23d1:

    not episode 4 it is episode 3

  • 23d1:

    not episode 4 it is episode 3

  • 23d1:

    not episode 4 it is episode 3

  • aaroz88:

    Trimas!!

  • mptoo: I don't often ask this, infact this would be the first time, but I don't suppose there is any chance...
  • Cinque_Persson:

    btw:
    quote /quote
    is broken

  • gabrielsyme:

    Sorry but where is the clicknupload link?

  • mike1204:

    Is this episode doomed??? The RMX avi version is only 12 minutes long!!!

  • waanaabe:

    Could PUSHING DAISES kindly be upoaded to CU? THANKS!

Archives