Sign Up   |   Sign In  
Young SheldonTrackerQueen of the GypsiesBrigada NimicTMZ Presents: The Downfall of DiddyColombianaThe Green VeilBodkinDevil in the FleshThe SimpsonsTales of Ordinary MadnessArthur the KingThe EqualizerCSI: VegasThe SympathizerGolden KamuyChallengersBaby DriverKrapopolisBob's BurgersThe Great NorthTriple FrontierA Walk Among the TombstonesDawn of the Planet of the ApesBeacon 23

Announcements

05/15

2024

1

Comments

Acapulco 2021 S03E04 Private Dancer 1080p ATVP WEB-DL DDP5 1 H 264-NTb
[RR/NF]
Size: 2.6GB mkv H264 (HIGH) / EAC3  HD  1920x960

Acapulco
File Information
[img]http://lookpic.com/cdn/i2/t/0515202403214910-1.jpg[/img]
[img]http://lookpic.com/cdn/i2/t/0515202403214910-2.jpg[/img]
[img]http://lookpic.com/cdn/i2/t/0515202403214910-3.jpg[/img]

General
Unique ID                                : 248921747511131604809845628270407151562 (0xBB4495B1221BEED482CB5332F5296FCA)
Complete name                            : Acapulco.2021.S03E04.Private.Dancer.1080p.ATVP.WEB-DL.DDP5.1.H.264-NTb.mkv
Format                                   : Matroska
Format version                           : Version 4
File size                                : 2.56 GiB
Duration                                 : 34 min 27 s
Overall bit rate                         : 10.7 Mb/s
Frame rate                               : 23.976 FPS
Writing application                      : mkvmerge v84.0 ('Sleeper') 64-bit
Writing library                          : libebml v1.4.5 + libmatroska v1.7.1

Video
ID                                       : 1
Format                                   : AVC
Format/Info                              : Advanced Video Codec
Format profile                           : High@L4
Format settings                          : CABAC / 4 Ref Frames
Format settings, CABAC                   : Yes
Format settings, Reference frames        : 4 frames
Codec ID                                 : V_MPEG4/ISO/AVC
Duration                                 : 34 min 27 s
Bit rate                                 : 9 874 kb/s
Width                                    : 1 920 pixels
Height                                   : 960 pixels
Display aspect ratio                     : 2.000
Frame rate mode                          : Constant
Frame rate                               : 23.976 (24000/1001) FPS
Color space                              : YUV
Chroma subsampling                       : 4:2:0
Bit depth                                : 8 bits
Scan type                                : Progressive
Bits/(Pixel*Frame)                       : 0.223
Stream size                              : 2.38 GiB (93%)
Default                                  : Yes
Forced                                   : No
Color range                              : Limited
Color primaries                          : BT.709
Transfer characteristics                 : BT.709
Matrix coefficients                      : BT.709

Audio
ID                                       : 2
Format                                   : E-AC-3 JOC
Format/Info                              : Enhanced AC-3 with Joint Object Coding
Commercial name                          : Dolby Digital Plus with Dolby Atmos
Codec ID                                 : A_EAC3
Duration                                 : 34 min 27 s
Bit rate mode                            : Constant
Bit rate                                 : 768 kb/s
Channel(s)                               : 6 channels
Channel layout                           : L R C LFE Ls Rs
Sampling rate                            : 48.0 kHz
Frame rate                               : 31.250 FPS (1536 SPF)
Compression mode                         : Lossy
Stream size                              : 189 MiB (7%)
Language                                 : English
Service kind                             : Complete Main
Default                                  : Yes
Forced                                   : No
Complexity index                         : 16
Number of dynamic objects                : 15
Bed channel count                        : 1 channel
Bed channel configuration                : LFE

Text #1
ID                                       : 3
Format                                   : UTF-8
Codec ID                                 : S_TEXT/UTF8
Codec ID/Info                            : UTF-8 Plain Text
Duration                                 : 31 min 40 s
Bit rate                                 : 49 b/s
Frame rate                               : 0.235 FPS
Count of elements                        : 446
Stream size                              : 11.4 KiB (0%)
Title                                    : Forced
Language                                 : English
Default                                  : Yes
Forced                                   : Yes

Text #2
ID                                       : 4
Format                                   : UTF-8
Codec ID                                 : S_TEXT/UTF8
Codec ID/Info                            : UTF-8 Plain Text
Duration                                 : 33 min 12 s
Bit rate                                 : 87 b/s
Frame rate                               : 0.367 FPS
Count of elements                        : 731
Stream size                              : 21.2 KiB (0%)
Language                                 : English
Default                                  : No
Forced                                   : No

Text #3
ID                                       : 5
Format                                   : UTF-8
Codec ID                                 : S_TEXT/UTF8
Codec ID/Info                            : UTF-8 Plain Text
Duration                                 : 33 min 13 s
Bit rate                                 : 99 b/s
Frame rate                               : 0.401 FPS
Count of elements                        : 799
Stream size                              : 24.2 KiB (0%)
Title                                    : SDH
Language                                 : English
Default                                  : No
Forced                                   : No

Text #4
ID                                       : 6
Format                                   : UTF-8
Codec ID                                 : S_TEXT/UTF8
Codec ID/Info                            : UTF-8 Plain Text
Duration                                 : 34 min 15 s
Bit rate                                 : 122 b/s
Frame rate                               : 0.315 FPS
Count of elements                        : 648
Stream size                              : 30.7 KiB (0%)
Language                                 : Arabic
Default                                  : No
Forced                                   : No

Text #5
ID                                       : 7
Format                                   : UTF-8
Codec ID                                 : S_TEXT/UTF8
Codec ID/Info                            : UTF-8 Plain Text
Duration                                 : 34 min 15 s
Bit rate                                 : 117 b/s
Frame rate                               : 0.213 FPS
Count of elements                        : 438
Stream size                              : 29.5 KiB (0%)
Language                                 : Bulgarian
Default                                  : No
Forced                                   : No

Text #6
ID                                       : 8
Format                                   : UTF-8
Codec ID                                 : S_TEXT/UTF8
Codec ID/Info                            : UTF-8 Plain Text
Duration                                 : 34 min 15 s
Bit rate                                 : 77 b/s
Frame rate                               : 0.314 FPS
Count of elements                        : 646
Stream size                              : 19.5 KiB (0%)
Title                                    : Chinese (Simplified)
Language                                 : Mandarin (Hans)
Default                                  : No
Forced                                   : No

Text #7
ID                                       : 9
Format                                   : UTF-8
Codec ID                                 : S_TEXT/UTF8
Codec ID/Info                            : UTF-8 Plain Text
Duration                                 : 34 min 15 s
Bit rate                                 : 75 b/s
Frame rate                               : 0.315 FPS
Count of elements                        : 647
Stream size                              : 19.0 KiB (0%)
Title                                    : Chinese (Traditional)
Language                                 : Mandarin (Hant)
Default                                  : No
Forced                                   : No

Text #8
ID                                       : 10
Format                                   : UTF-8
Codec ID                                 : S_TEXT/UTF8
Codec ID/Info                            : UTF-8 Plain Text
Duration                                 : 34 min 15 s
Bit rate                                 : 77 b/s
Frame rate                               : 0.295 FPS
Count of elements                        : 607
Stream size                              : 19.4 KiB (0%)
Language                                 : Czech
Default                                  : No
Forced                                   : No

Text #9
ID                                       : 11
Format                                   : UTF-8
Codec ID                                 : S_TEXT/UTF8
Codec ID/Info                            : UTF-8 Plain Text
Duration                                 : 34 min 15 s
Bit rate                                 : 76 b/s
Frame rate                               : 0.242 FPS
Count of elements                        : 497
Stream size                              : 19.3 KiB (0%)
Language                                 : Danish
Default                                  : No
Forced                                   : No

Text #10
ID                                       : 12
Format                                   : UTF-8
Codec ID                                 : S_TEXT/UTF8
Codec ID/Info                            : UTF-8 Plain Text
Duration                                 : 33 min 25 s
Bit rate                                 : 82 b/s
Frame rate                               : 0.253 FPS
Count of elements                        : 508
Stream size                              : 20.3 KiB (0%)
Language                                 : German
Default                                  : No
Forced                                   : No

Text #11
ID                                       : 13
Format                                   : UTF-8
Codec ID                                 : S_TEXT/UTF8
Codec ID/Info                            : UTF-8 Plain Text
Duration                                 : 34 min 15 s
Bit rate                                 : 140 b/s
Frame rate                               : 0.289 FPS
Count of elements                        : 594
Stream size                              : 35.4 KiB (0%)
Language                                 : Greek
Default                                  : No
Forced                                   : No

Text #12
ID                                       : 14
Format                                   : UTF-8
Codec ID                                 : S_TEXT/UTF8
Codec ID/Info                            : UTF-8 Plain Text
Duration                                 : 34 min 15 s
Bit rate                                 : 89 b/s
Frame rate                               : 0.319 FPS
Count of elements                        : 656
Stream size                              : 22.4 KiB (0%)
Title                                    : Spanish (Latin America)
Language                                 : Spanish (Latin America)
Default                                  : No
Forced                                   : No

Text #13
ID                                       : 15
Format                                   : UTF-8
Codec ID                                 : S_TEXT/UTF8
Codec ID/Info                            : UTF-8 Plain Text
Duration                                 : 34 min 15 s
Bit rate                                 : 88 b/s
Frame rate                               : 0.315 FPS
Count of elements                        : 647
Stream size                              : 22.1 KiB (0%)
Title                                    : Spanish (Spain)
Language                                 : Spanish (ES)
Default                                  : No
Forced                                   : No

Text #14
ID                                       : 16
Format                                   : UTF-8
Codec ID                                 : S_TEXT/UTF8
Codec ID/Info                            : UTF-8 Plain Text
Duration                                 : 34 min 15 s
Bit rate                                 : 80 b/s
Frame rate                               : 0.295 FPS
Count of elements                        : 607
Stream size                              : 20.3 KiB (0%)
Language                                 : Estonian
Default                                  : No
Forced                                   : No

Text #15
ID                                       : 17
Format                                   : UTF-8
Codec ID                                 : S_TEXT/UTF8
Codec ID/Info                            : UTF-8 Plain Text
Duration                                 : 34 min 15 s
Bit rate                                 : 80 b/s
Frame rate                               : 0.281 FPS
Count of elements                        : 578
Stream size                              : 20.1 KiB (0%)
Language                                 : Finnish
Default                                  : No
Forced                                   : No

Text #16
ID                                       : 18
Format                                   : UTF-8
Codec ID                                 : S_TEXT/UTF8
Codec ID/Info                            : UTF-8 Plain Text
Duration                                 : 34 min 21 s
Bit rate                                 : 81 b/s
Frame rate                               : 0.321 FPS
Count of elements                        : 662
Stream size                              : 20.6 KiB (0%)
Title                                    : French (Canada)
Language                                 : French (CA)
Default                                  : No
Forced                                   : No

Text #17
ID                                       : 19
Format                                   : UTF-8
Codec ID                                 : S_TEXT/UTF8
Codec ID/Info                            : UTF-8 Plain Text
Duration                                 : 34 min 21 s
Bit rate                                 : 81 b/s
Frame rate                               : 0.321 FPS
Count of elements                        : 662
Stream size                              : 20.6 KiB (0%)
Title                                    : French (France)
Language                                 : French (FR)
Default                                  : No
Forced                                   : No

Text #18
ID                                       : 20
Format                                   : UTF-8
Codec ID                                 : S_TEXT/UTF8
Codec ID/Info                            : UTF-8 Plain Text
Duration                                 : 34 min 15 s
Bit rate                                 : 115 b/s
Frame rate                               : 0.315 FPS
Count of elements                        : 648
Stream size                              : 29.0 KiB (0%)
Language                                 : Hebrew
Default                                  : No
Forced                                   : No

Text #19
ID                                       : 21
Format                                   : UTF-8
Codec ID                                 : S_TEXT/UTF8
Codec ID/Info                            : UTF-8 Plain Text
Duration                                 : 34 min 15 s
Bit rate                                 : 231 b/s
Frame rate                               : 0.316 FPS
Count of elements                        : 649
Stream size                              : 58.2 KiB (0%)
Language                                 : Hindi
Default                                  : No
Forced                                   : No

Text #20
ID                                       : 22
Format                                   : UTF-8
Codec ID                                 : S_TEXT/UTF8
Codec ID/Info                            : UTF-8 Plain Text
Duration                                 : 34 min 15 s
Bit rate                                 : 82 b/s
Frame rate                               : 0.306 FPS
Count of elements                        : 630
Stream size                              : 20.7 KiB (0%)
Language                                 : Hungarian
Default                                  : No
Forced                                   : No

Text #21
ID                                       : 23
Format                                   : UTF-8
Codec ID                                 : S_TEXT/UTF8
Codec ID/Info                            : UTF-8 Plain Text
Duration                                 : 34 min 15 s
Bit rate                                 : 84 b/s
Frame rate                               : 0.314 FPS
Count of elements                        : 646
Stream size                              : 21.1 KiB (0%)
Language                                 : Indonesian
Default                                  : No
Forced                                   : No

Text #22
ID                                       : 24
Format                                   : UTF-8
Codec ID                                 : S_TEXT/UTF8
Codec ID/Info                            : UTF-8 Plain Text
Duration                                 : 34 min 12 s
Bit rate                                 : 87 b/s
Frame rate                               : 0.312 FPS
Count of elements                        : 641
Stream size                              : 21.9 KiB (0%)
Language                                 : Italian
Default                                  : No
Forced                                   : No

Text #23
ID                                       : 25
Format                                   : UTF-8
Codec ID                                 : S_TEXT/UTF8
Codec ID/Info                            : UTF-8 Plain Text
Duration                                 : 34 min 22 s
Bit rate                                 : 76 b/s
Frame rate                               : 0.290 FPS
Count of elements                        : 597
Stream size                              : 19.3 KiB (0%)
Language                                 : Japanese
Default                                  : No
Forced                                   : No

Text #24
ID                                       : 26
Format                                   : UTF-8
Codec ID                                 : S_TEXT/UTF8
Codec ID/Info                            : UTF-8 Plain Text
Duration                                 : 34 min 15 s
Bit rate                                 : 87 b/s
Frame rate                               : 0.314 FPS
Count of elements                        : 646
Stream size                              : 21.9 KiB (0%)
Language                                 : Korean
Default                                  : No
Forced                                   : No

Text #25
ID                                       : 27
Format                                   : UTF-8
Codec ID                                 : S_TEXT/UTF8
Codec ID/Info                            : UTF-8 Plain Text
Duration                                 : 34 min 15 s
Bit rate                                 : 86 b/s
Frame rate                               : 0.309 FPS
Count of elements                        : 636
Stream size                              : 21.8 KiB (0%)
Language                                 : Lithuanian
Default                                  : No
Forced                                   : No

Text #26
ID                                       : 28
Format                                   : UTF-8
Codec ID                                 : S_TEXT/UTF8
Codec ID/Info                            : UTF-8 Plain Text
Duration                                 : 34 min 15 s
Bit rate                                 : 87 b/s
Frame rate                               : 0.313 FPS
Count of elements                        : 644
Stream size                              : 22.0 KiB (0%)
Language                                 : Latvian
Default                                  : No
Forced                                   : No

Text #27
ID                                       : 29
Format                                   : UTF-8
Codec ID                                 : S_TEXT/UTF8
Codec ID/Info                            : UTF-8 Plain Text
Duration                                 : 34 min 15 s
Bit rate                                 : 83 b/s
Frame rate                               : 0.313 FPS
Count of elements                        : 643
Stream size                              : 20.9 KiB (0%)
Language                                 : Malay
Default                                  : No
Forced                                   : No

Text #28
ID                                       : 30
Format                                   : UTF-8
Codec ID                                 : S_TEXT/UTF8
Codec ID/Info                            : UTF-8 Plain Text
Duration                                 : 34 min 15 s
Bit rate                                 : 77 b/s
Frame rate                               : 0.226 FPS
Count of elements                        : 464
Stream size                              : 19.4 KiB (0%)
Language                                 : Dutch
Default                                  : No
Forced                                   : No

Text #29
ID                                       : 31
Format                                   : UTF-8
Codec ID                                 : S_TEXT/UTF8
Codec ID/Info                            : UTF-8 Plain Text
Duration                                 : 34 min 15 s
Bit rate                                 : 80 b/s
Frame rate                               : 0.235 FPS
Count of elements                        : 484
Stream size                              : 20.2 KiB (0%)
Language                                 : Norwegian
Default                                  : No
Forced                                   : No

Text #30
ID                                       : 32
Format                                   : UTF-8
Codec ID                                 : S_TEXT/UTF8
Codec ID/Info                            : UTF-8 Plain Text
Duration                                 : 34 min 15 s
Bit rate                                 : 82 b/s
Frame rate                               : 0.308 FPS
Count of elements                        : 634
Stream size                              : 20.8 KiB (0%)
Language                                 : Polish
Default                                  : No
Forced                                   : No

Text #31
ID                                       : 33
Format                                   : UTF-8
Codec ID                                 : S_TEXT/UTF8
Codec ID/Info                            : UTF-8 Plain Text
Duration                                 : 34 min 15 s
Bit rate                                 : 88 b/s
Frame rate                               : 0.312 FPS
Count of elements                        : 642
Stream size                              : 22.3 KiB (0%)
Title                                    : Portuguese
Language                                 : Portuguese
Default                                  : No
Forced                                   : No

Text #32
ID                                       : 34
Format                                   : UTF-8
Codec ID                                 : S_TEXT/UTF8
Codec ID/Info                            : UTF-8 Plain Text
Duration                                 : 34 min 15 s
Bit rate                                 : 80 b/s
Frame rate                               : 0.307 FPS
Count of elements                        : 631
Stream size                              : 20.3 KiB (0%)
Title                                    : Portuguese (Brazil)
Language                                 : Portuguese (BR)
Default                                  : No
Forced                                   : No

Text #33
ID                                       : 35
Format                                   : UTF-8
Codec ID                                 : S_TEXT/UTF8
Codec ID/Info                            : UTF-8 Plain Text
Duration                                 : 34 min 15 s
Bit rate                                 : 131 b/s
Frame rate                               : 0.304 FPS
Count of elements                        : 626
Stream size                              : 33.0 KiB (0%)
Language                                 : Russian
Default                                  : No
Forced                                   : No

Text #34
ID                                       : 36
Format                                   : UTF-8
Codec ID                                 : S_TEXT/UTF8
Codec ID/Info                            : UTF-8 Plain Text
Duration                                 : 34 min 15 s
Bit rate                                 : 81 b/s
Frame rate                               : 0.314 FPS
Count of elements                        : 645
Stream size                              : 20.4 KiB (0%)
Language                                 : Slovak
Default                                  : No
Forced                                   : No

Text #35
ID                                       : 37
Format                                   : UTF-8
Codec ID                                 : S_TEXT/UTF8
Codec ID/Info                            : UTF-8 Plain Text
Duration                                 : 34 min 15 s
Bit rate                                 : 69 b/s
Frame rate                               : 0.223 FPS
Count of elements                        : 458
Stream size                              : 17.4 KiB (0%)
Language                                 : Slovenian
Default                                  : No
Forced                                   : No

Text #36
ID                                       : 38
Format                                   : UTF-8
Codec ID                                 : S_TEXT/UTF8
Codec ID/Info                            : UTF-8 Plain Text
Duration                                 : 34 min 15 s
Bit rate                                 : 83 b/s
Frame rate                               : 0.257 FPS
Count of elements                        : 529
Stream size                              : 21.1 KiB (0%)
Language                                 : Swedish
Default                                  : No
Forced                                   : No

Text #37
ID                                       : 39
Format                                   : UTF-8
Codec ID                                 : S_TEXT/UTF8
Codec ID/Info                            : UTF-8 Plain Text
Duration                                 : 34 min 15 s
Bit rate                                 : 281 b/s
Frame rate                               : 0.315 FPS
Count of elements                        : 648
Stream size                              : 70.6 KiB (0%)
Language                                 : Tamil
Default                                  : No
Forced                                   : No

Text #38
ID                                       : 40
Format                                   : UTF-8
Codec ID                                 : S_TEXT/UTF8
Codec ID/Info                            : UTF-8 Plain Text
Duration                                 : 34 min 15 s
Bit rate                                 : 250 b/s
Frame rate                               : 0.315 FPS
Count of elements                        : 648
Stream size                              : 62.9 KiB (0%)
Language                                 : Telugu
Default                                  : No
Forced                                   : No

Text #39
ID                                       : 41
Format                                   : UTF-8
Codec ID                                 : S_TEXT/UTF8
Codec ID/Info                            : UTF-8 Plain Text
Duration                                 : 34 min 15 s
Bit rate                                 : 210 b/s
Frame rate                               : 0.314 FPS
Count of elements                        : 646
Stream size                              : 52.9 KiB (0%)
Language                                 : Thai
Default                                  : No
Forced                                   : No

Text #40
ID                                       : 42
Format                                   : UTF-8
Codec ID                                 : S_TEXT/UTF8
Codec ID/Info                            : UTF-8 Plain Text
Duration                                 : 34 min 15 s
Bit rate                                 : 78 b/s
Frame rate                               : 0.298 FPS
Count of elements                        : 612
Stream size                              : 19.8 KiB (0%)
Language                                 : Turkish
Default                                  : No
Forced                                   : No

Text #41
ID                                       : 43
Format                                   : UTF-8
Codec ID                                 : S_TEXT/UTF8
Codec ID/Info                            : UTF-8 Plain Text
Duration                                 : 34 min 15 s
Bit rate                                 : 133 b/s
Frame rate                               : 0.315 FPS
Count of elements                        : 648
Stream size                              : 33.5 KiB (0%)
Language                                 : Ukrainian
Default                                  : No
Forced                                   : No

Text #42
ID                                       : 44
Format                                   : UTF-8
Codec ID                                 : S_TEXT/UTF8
Codec ID/Info                            : UTF-8 Plain Text
Duration                                 : 34 min 15 s
Bit rate                                 : 109 b/s
Frame rate                               : 0.315 FPS
Count of elements                        : 648
Stream size                              : 27.5 KiB (0%)
Language                                 : Vietnamese
Default                                  : No
Forced                                   : No

Text #43
ID                                       : 45
Format                                   : UTF-8
Codec ID                                 : S_TEXT/UTF8
Codec ID/Info                            : UTF-8 Plain Text
Duration                                 : 34 min 15 s
Bit rate                                 : 67 b/s
Frame rate                               : 0.315 FPS
Count of elements                        : 647
Stream size                              : 17.0 KiB (0%)
Title                                    : Cantonese (Traditional)
Language                                 : Cantonese (Hant)
Default                                  : No
Forced                                   : No



Download
File Container: MKV
Video/Audio Codec: H264 (HIGH) EAC3
Video Resolution: 1920x960

1 Response to "[RR/NF] Acapulco 2021 S03E04 Private Dancer 1080p ATVP WEB-DL DDP5 1 H 264-NTb (2.6GB)"
05/15/24
04:57:51
ReadyPlayerOne

Thank you!

Please Login to post a comment.
If you don't have any account, please Register.
  • Subscribe my Feeds
  • Facebook
Encoding Queue:  x264  x265

Latest Episodes

Popular Movies and TV Shows

  • Young Sheldon
  • Tracker
  • Queen of the Gypsies
  • Brigada Nimic
  • TMZ Presents: The Downfall of Diddy
  • Colombiana
  • The Green Veil
  • Bodkin
  • Devil in the Flesh
  • The Simpsons
  • Tales of Ordinary Madness
  • Arthur the King
  • The Equalizer
  • CSI: Vegas
  • The Sympathizer
  • Golden Kamuy
  • Challengers
  • Baby Driver
  • Krapopolis
  • Bob's Burgers
  • The Great North
  • Triple Frontier
  • A Walk Among the Tombstones
  • Dawn of the Planet of the Apes
  • Beacon 23

Recent Comments

  • Bud: Is the search engine down for everyone, or just me? It just says 'You're forbidden!' whenever I lo...
  • 23d1:

    not episode 4 it is episode 3

  • 23d1:

    not episode 4 it is episode 3

  • 23d1:

    not episode 4 it is episode 3

  • 23d1:

    not episode 4 it is episode 3

  • aaroz88:

    Trimas!!

  • mptoo: I don't often ask this, infact this would be the first time, but I don't suppose there is any chance...
  • Cinque_Persson:

    btw:
    quote /quote
    is broken

  • gabrielsyme:

    Sorry but where is the clicknupload link?

  • mike1204:

    Is this episode doomed??? The RMX avi version is only 12 minutes long!!!

  • waanaabe:

    Could PUSHING DAISES kindly be upoaded to CU? THANKS!

Archives