Sign Up   |   Sign In  
The Bold and the BeautifulWalkerColdplay Live in São PauloInside No. 9Pulp FictionDeath GamesThe Artifice GirlOriginThe PrimevalsFiennes Return to the WildThe Young and the RestlessThe ChosenThe AcolyteDark MatterPresumed InnocentMysteries of the Terracotta WarriorsNinja TerminatorHow Music Got FreeWWE NXTThe Big Door PrizeTryingLost SoulzThe Beast in the JunglePet SemataryThe Daily Show

Announcements

06/06

2024

1

Comments

Criminal Minds S17E01 Gold Star 1080p AMZN WEB-DL DDP5 1 H 264-FLUX
[RR/NF]
Size: 2.2GB mkv H264 (HIGH) / EAC3  HD  1920x816

Criminal Minds
File Information
[img]http://lookpic.com/cdn/i2/t/0606202409050654-1.jpg[/img]
[img]http://lookpic.com/cdn/i2/t/0606202409050654-2.jpg[/img]
[img]http://lookpic.com/cdn/i2/t/0606202409050654-3.jpg[/img]

General
Unique ID                                : 95818807667018206852002604041177332312 (0x481607F5A788DD6ECE7A95385CEAFA58)
Complete name                            : Criminal Minds S17E01 Gold Star 1080p AMZN WEB-DL DDP5 1 H 264-FLUX.mkv
Format                                   : Matroska
Format version                           : Version 4
File size                                : 2.19 GiB
Duration                                 : 52 min 17 s
Overall bit rate                         : 6 008 kb/s
Frame rate                               : 23.976 FPS
Writing application                      : mkvmerge v79.0 ('Funeral Pyres') 64-bit
Writing library                          : libebml v1.4.4 + libmatroska v1.7.1

Video
ID                                       : 1
Format                                   : AVC
Format/Info                              : Advanced Video Codec
Format profile                           : High@L4
Format settings                          : CABAC / 4 Ref Frames
Format settings, CABAC                   : Yes
Format settings, Reference frames        : 4 frames
Codec ID                                 : V_MPEG4/ISO/AVC
Duration                                 : 52 min 17 s
Bit rate mode                            : Constant
Bit rate                                 : 5 365 kb/s
Nominal bit rate                         : 10 000 kb/s
Width                                    : 1 920 pixels
Height                                   : 816 pixels
Display aspect ratio                     : 2.35:1
Frame rate mode                          : Constant
Frame rate                               : 23.976 (24000/1001) FPS
Color space                              : YUV
Chroma subsampling                       : 4:2:0
Bit depth                                : 8 bits
Scan type                                : Progressive
Bits/(Pixel*Frame)                       : 0.143
Stream size                              : 1.96 GiB (89%)
Language                                 : English (US)
Default                                  : Yes
Forced                                   : No
Color range                              : Limited
Color primaries                          : BT.709
Transfer characteristics                 : BT.709
Matrix coefficients                      : BT.709

Audio
ID                                       : 2
Format                                   : E-AC-3
Format/Info                              : Enhanced AC-3
Commercial name                          : Dolby Digital Plus
Codec ID                                 : A_EAC3
Duration                                 : 52 min 17 s
Bit rate mode                            : Constant
Bit rate                                 : 640 kb/s
Channel(s)                               : 6 channels
Channel layout                           : L R C LFE Ls Rs
Sampling rate                            : 48.0 kHz
Frame rate                               : 31.250 FPS (1536 SPF)
Compression mode                         : Lossy
Stream size                              : 239 MiB (11%)
Language                                 : English (US)
Service kind                             : Complete Main
Default                                  : Yes
Forced                                   : No

Text #1
ID                                       : 3
Format                                   : UTF-8
Codec ID                                 : S_TEXT/UTF8
Codec ID/Info                            : UTF-8 Plain Text
Duration                                 : 50 min 59 s
Bit rate                                 : 87 b/s
Frame rate                               : 0.317 FPS
Count of elements                        : 970
Stream size                              : 32.9 KiB (0%)
Language                                 : English (US)
Default                                  : No
Forced                                   : No

Text #2
ID                                       : 4
Format                                   : UTF-8
Codec ID                                 : S_TEXT/UTF8
Codec ID/Info                            : UTF-8 Plain Text
Duration                                 : 51 min 53 s
Bit rate                                 : 91 b/s
Frame rate                               : 0.345 FPS
Count of elements                        : 1074
Stream size                              : 34.7 KiB (0%)
Title                                    : SDH
Language                                 : English (US)
Default                                  : No
Forced                                   : No

Menu
00:00:00.000                             : en:Scene 1
00:00:06.000                             : en:Recap
00:01:45.000                             : en:Scene 2
00:51:05.000                             : en:End Credits



Download
File Container: MKV
Video/Audio Codec: H264 (HIGH) EAC3
Video Resolution: 1920x816

1 Response to "[RR/NF] Criminal Minds S17E01 Gold Star 1080p AMZN WEB-DL DDP5 1 H 264-FLUX (2.2GB)"
06/06/24
09:57:04
ReadyPlayerOne

Thank You

Please Login to post a comment.
If you don't have any account, please Register.
  • Subscribe my Feeds
  • Facebook
Encoding Queue:  x264  x265

Latest Episodes

Popular Movies and TV Shows

  • The Bold and the Beautiful
  • Walker
  • Coldplay Live in São Paulo
  • Inside No. 9
  • Pulp Fiction
  • Death Games
  • The Artifice Girl
  • Origin
  • The Primevals
  • Fiennes Return to the Wild
  • The Young and the Restless
  • The Chosen
  • The Acolyte
  • Dark Matter
  • Presumed Innocent
  • Mysteries of the Terracotta Warriors
  • Ninja Terminator
  • How Music Got Free
  • WWE NXT
  • The Big Door Prize
  • Trying
  • Lost Soulz
  • The Beast in the Jungle
  • Pet Sematary
  • The Daily Show

Recent Comments

  • KissclTum: [url=https://kisstom.ru/prices]имплант с коронкой цена кисс [/url] Tegs: и...
  • Diggety247:

    BrokenHanded, Try using a DL manager.

  • BrokenHanded: clicknupload does not seem to work for past few days. keep getting an error saying the site is sendi...
  • Bud: Helps if you actually add these to the "Late Night with Seth Meyers" page too...
  • rambaldi70:

    Hy! Right now, my download speed : 1 Mb/s
    this is ok?
    Tx answer

  • Cinque_Persson: At 183 MB this had to be something completely different. In fact it's just the main actors commentin...
  • meyat74:

    my bad, should be full season

  • Oscar2:

    Halo "is" a good show

  • MeH:

    "one of the most impressive scenes"

  • rappet:

    Unfortunately, episode 2 not playing and episode 3 half missing (only 37 minutes long).

  • Anovani:

    Nice 1

  • shark:

    Will there be a sequel?

  • sjors:

    This release in in Russian with Russian subs. No English.

  • RapidRabbit98: I'll ask again Forged in Fire Series 11 episode 1 - anyone have it?

Archives