Sign Up   |   Sign In  
Inside No. 9RebusThe Many Lives of Martha StewartHidden CityShe Is ConannFletch LivesDoctor WhoS.W.A.T.A Gentleman in MoscowNähtamatu võitlus8 Views of Lake BiwaImaginaryYoung SheldonBlue BloodsFire CountryEasy RiderChallengers12.12: The DaySugarGrey's AnatomyStar Trek: DiscoveryGodzilla x Kong: The New EmpireMothers' InstinctAdagioElsbeth

Announcements

05/10

2024

1

Comments

Dark Matter 2024 S01E01 Are You Happy in Your Life 1080p ATVP WEB-DL DDP5 1 H 264-NTb
[RR/NF]
Size: 3.5GB mkv H264 (HIGH) / EAC3  HD  1920x960

Dark Matter
File Information
[img]http://lookpic.com/cdn/i2/t/0509202423591255-1.jpg[/img]
[img]http://lookpic.com/cdn/i2/t/0509202423591255-2.jpg[/img]
[img]http://lookpic.com/cdn/i2/t/0509202423591255-3.jpg[/img]

General
Unique ID                                : 248919954556193779737854065507335361680 (0xBB443D4ADC402ECCBB598B25E4675490)
Complete name                            : Dark Matter 2024 S01E01 Are You Happy in Your Life 1080p ATVP WEB-DL DDP5 1 H 264-NTb.mkv
Format                                   : Matroska
Format version                           : Version 4
File size                                : 3.49 GiB
Duration                                 : 46 min 15 s
Overall bit rate                         : 10.8 Mb/s
Frame rate                               : 23.976 FPS
Writing application                      : mkvmerge v81.0 ('Milliontown') 64-bit
Writing library                          : libebml v1.4.4 + libmatroska v1.7.1

Video
ID                                       : 1
Format                                   : AVC
Format/Info                              : Advanced Video Codec
Format profile                           : High@L4
Format settings                          : CABAC / 4 Ref Frames
Format settings, CABAC                   : Yes
Format settings, Reference frames        : 4 frames
Codec ID                                 : V_MPEG4/ISO/AVC
Duration                                 : 46 min 15 s
Bit rate                                 : 10.0 Mb/s
Width                                    : 1 920 pixels
Height                                   : 960 pixels
Display aspect ratio                     : 2.000
Frame rate mode                          : Constant
Frame rate                               : 23.976 (24000/1001) FPS
Color space                              : YUV
Chroma subsampling                       : 4:2:0
Bit depth                                : 8 bits
Scan type                                : Progressive
Bits/(Pixel*Frame)                       : 0.227
Stream size                              : 3.24 GiB (93%)
Default                                  : Yes
Forced                                   : No
Color range                              : Limited
Color primaries                          : BT.709
Transfer characteristics                 : BT.709
Matrix coefficients                      : BT.709

Audio
ID                                       : 2
Format                                   : E-AC-3 JOC
Format/Info                              : Enhanced AC-3 with Joint Object Coding
Commercial name                          : Dolby Digital Plus with Dolby Atmos
Codec ID                                 : A_EAC3
Duration                                 : 46 min 15 s
Bit rate mode                            : Constant
Bit rate                                 : 768 kb/s
Channel(s)                               : 6 channels
Channel layout                           : L R C LFE Ls Rs
Sampling rate                            : 48.0 kHz
Frame rate                               : 31.250 FPS (1536 SPF)
Compression mode                         : Lossy
Stream size                              : 254 MiB (7%)
Language                                 : English
Service kind                             : Complete Main
Default                                  : Yes
Forced                                   : No
Complexity index                         : 16
Number of dynamic objects                : 15
Bed channel count                        : 1 channel
Bed channel configuration                : LFE

Text #1
ID                                       : 3
Format                                   : UTF-8
Codec ID                                 : S_TEXT/UTF8
Codec ID/Info                            : UTF-8 Plain Text
Duration                                 : 42 min 32 s
Bit rate                                 : 41 b/s
Frame rate                               : 0.176 FPS
Count of elements                        : 450
Stream size                              : 13.0 KiB (0%)
Language                                 : English
Default                                  : No
Forced                                   : No

Text #2
ID                                       : 4
Format                                   : UTF-8
Codec ID                                 : S_TEXT/UTF8
Codec ID/Info                            : UTF-8 Plain Text
Duration                                 : 44 min 57 s
Bit rate                                 : 51 b/s
Frame rate                               : 0.210 FPS
Count of elements                        : 566
Stream size                              : 17.0 KiB (0%)
Title                                    : SDH
Language                                 : English
Default                                  : No
Forced                                   : No

Text #3
ID                                       : 5
Format                                   : UTF-8
Codec ID                                 : S_TEXT/UTF8
Codec ID/Info                            : UTF-8 Plain Text
Duration                                 : 44 min 14 s
Bit rate                                 : 57 b/s
Frame rate                               : 0.176 FPS
Count of elements                        : 466
Stream size                              : 18.5 KiB (0%)
Language                                 : Arabic
Default                                  : No
Forced                                   : No

Text #4
ID                                       : 6
Format                                   : UTF-8
Codec ID                                 : S_TEXT/UTF8
Codec ID/Info                            : UTF-8 Plain Text
Duration                                 : 44 min 14 s
Bit rate                                 : 59 b/s
Frame rate                               : 0.136 FPS
Count of elements                        : 360
Stream size                              : 19.3 KiB (0%)
Language                                 : Bulgarian
Default                                  : No
Forced                                   : No

Text #5
ID                                       : 7
Format                                   : UTF-8
Codec ID                                 : S_TEXT/UTF8
Codec ID/Info                            : UTF-8 Plain Text
Duration                                 : 44 min 14 s
Bit rate                                 : 37 b/s
Frame rate                               : 0.176 FPS
Count of elements                        : 467
Stream size                              : 12.1 KiB (0%)
Title                                    : Chinese (Simplified)
Language                                 : Mandarin (Hans)
Default                                  : No
Forced                                   : No

Text #6
ID                                       : 8
Format                                   : UTF-8
Codec ID                                 : S_TEXT/UTF8
Codec ID/Info                            : UTF-8 Plain Text
Duration                                 : 44 min 14 s
Bit rate                                 : 35 b/s
Frame rate                               : 0.177 FPS
Count of elements                        : 469
Stream size                              : 11.6 KiB (0%)
Title                                    : Chinese (Traditional)
Language                                 : Mandarin (Hant)
Default                                  : No
Forced                                   : No

Text #7
ID                                       : 9
Format                                   : UTF-8
Codec ID                                 : S_TEXT/UTF8
Codec ID/Info                            : UTF-8 Plain Text
Duration                                 : 44 min 14 s
Bit rate                                 : 36 b/s
Frame rate                               : 0.163 FPS
Count of elements                        : 432
Stream size                              : 11.7 KiB (0%)
Language                                 : Czech
Default                                  : No
Forced                                   : No

Text #8
ID                                       : 10
Format                                   : UTF-8
Codec ID                                 : S_TEXT/UTF8
Codec ID/Info                            : UTF-8 Plain Text
Duration                                 : 44 min 14 s
Bit rate                                 : 36 b/s
Frame rate                               : 0.143 FPS
Count of elements                        : 380
Stream size                              : 11.9 KiB (0%)
Language                                 : Danish
Default                                  : No
Forced                                   : No

Text #9
ID                                       : 11
Format                                   : UTF-8
Codec ID                                 : S_TEXT/UTF8
Codec ID/Info                            : UTF-8 Plain Text
Duration                                 : 44 min 14 s
Bit rate                                 : 38 b/s
Frame rate                               : 0.169 FPS
Count of elements                        : 449
Stream size                              : 12.6 KiB (0%)
Language                                 : German
Default                                  : No
Forced                                   : No

Text #10
ID                                       : 12
Format                                   : UTF-8
Codec ID                                 : S_TEXT/UTF8
Codec ID/Info                            : UTF-8 Plain Text
Duration                                 : 44 min 14 s
Bit rate                                 : 66 b/s
Frame rate                               : 0.169 FPS
Count of elements                        : 448
Stream size                              : 21.5 KiB (0%)
Language                                 : Greek
Default                                  : No
Forced                                   : No

Text #11
ID                                       : 13
Format                                   : UTF-8
Codec ID                                 : S_TEXT/UTF8
Codec ID/Info                            : UTF-8 Plain Text
Duration                                 : 44 min 14 s
Bit rate                                 : 41 b/s
Frame rate                               : 0.176 FPS
Count of elements                        : 468
Stream size                              : 13.5 KiB (0%)
Title                                    : Spanish (Latin America)
Language                                 : Spanish (Latin America)
Default                                  : No
Forced                                   : No

Text #12
ID                                       : 14
Format                                   : UTF-8
Codec ID                                 : S_TEXT/UTF8
Codec ID/Info                            : UTF-8 Plain Text
Duration                                 : 44 min 14 s
Bit rate                                 : 39 b/s
Frame rate                               : 0.176 FPS
Count of elements                        : 468
Stream size                              : 12.9 KiB (0%)
Title                                    : Spanish (Spain)
Language                                 : Spanish (ES)
Default                                  : No
Forced                                   : No

Text #13
ID                                       : 15
Format                                   : UTF-8
Codec ID                                 : S_TEXT/UTF8
Codec ID/Info                            : UTF-8 Plain Text
Duration                                 : 44 min 14 s
Bit rate                                 : 38 b/s
Frame rate                               : 0.175 FPS
Count of elements                        : 464
Stream size                              : 12.5 KiB (0%)
Language                                 : Estonian
Default                                  : No
Forced                                   : No

Text #14
ID                                       : 16
Format                                   : UTF-8
Codec ID                                 : S_TEXT/UTF8
Codec ID/Info                            : UTF-8 Plain Text
Duration                                 : 44 min 14 s
Bit rate                                 : 40 b/s
Frame rate                               : 0.174 FPS
Count of elements                        : 462
Stream size                              : 13.1 KiB (0%)
Language                                 : Finnish
Default                                  : No
Forced                                   : No

Text #15
ID                                       : 17
Format                                   : UTF-8
Codec ID                                 : S_TEXT/UTF8
Codec ID/Info                            : UTF-8 Plain Text
Duration                                 : 44 min 14 s
Bit rate                                 : 37 b/s
Frame rate                               : 0.185 FPS
Count of elements                        : 490
Stream size                              : 12.2 KiB (0%)
Title                                    : French (Canada)
Language                                 : French (CA)
Default                                  : No
Forced                                   : No

Text #16
ID                                       : 18
Format                                   : UTF-8
Codec ID                                 : S_TEXT/UTF8
Codec ID/Info                            : UTF-8 Plain Text
Duration                                 : 44 min 14 s
Bit rate                                 : 37 b/s
Frame rate                               : 0.184 FPS
Count of elements                        : 489
Stream size                              : 12.1 KiB (0%)
Title                                    : French (France)
Language                                 : French (FR)
Default                                  : No
Forced                                   : No

Text #17
ID                                       : 19
Format                                   : UTF-8
Codec ID                                 : S_TEXT/UTF8
Codec ID/Info                            : UTF-8 Plain Text
Duration                                 : 44 min 14 s
Bit rate                                 : 55 b/s
Frame rate                               : 0.177 FPS
Count of elements                        : 469
Stream size                              : 17.9 KiB (0%)
Language                                 : Hebrew
Default                                  : No
Forced                                   : No

Text #18
ID                                       : 20
Format                                   : UTF-8
Codec ID                                 : S_TEXT/UTF8
Codec ID/Info                            : UTF-8 Plain Text
Duration                                 : 44 min 14 s
Bit rate                                 : 111 b/s
Frame rate                               : 0.177 FPS
Count of elements                        : 471
Stream size                              : 36.1 KiB (0%)
Language                                 : Hindi
Default                                  : No
Forced                                   : No

Text #19
ID                                       : 21
Format                                   : UTF-8
Codec ID                                 : S_TEXT/UTF8
Codec ID/Info                            : UTF-8 Plain Text
Duration                                 : 44 min 14 s
Bit rate                                 : 39 b/s
Frame rate                               : 0.173 FPS
Count of elements                        : 460
Stream size                              : 12.8 KiB (0%)
Language                                 : Hungarian
Default                                  : No
Forced                                   : No

Text #20
ID                                       : 22
Format                                   : UTF-8
Codec ID                                 : S_TEXT/UTF8
Codec ID/Info                            : UTF-8 Plain Text
Duration                                 : 44 min 14 s
Bit rate                                 : 36 b/s
Frame rate                               : 0.175 FPS
Count of elements                        : 465
Stream size                              : 11.9 KiB (0%)
Language                                 : Indonesian
Default                                  : No
Forced                                   : No

Text #21
ID                                       : 23
Format                                   : UTF-8
Codec ID                                 : S_TEXT/UTF8
Codec ID/Info                            : UTF-8 Plain Text
Duration                                 : 43 min 31 s
Bit rate                                 : 39 b/s
Frame rate                               : 0.177 FPS
Count of elements                        : 462
Stream size                              : 12.7 KiB (0%)
Language                                 : Italian
Default                                  : No
Forced                                   : No

Text #22
ID                                       : 24
Format                                   : UTF-8
Codec ID                                 : S_TEXT/UTF8
Codec ID/Info                            : UTF-8 Plain Text
Duration                                 : 44 min 14 s
Bit rate                                 : 34 b/s
Frame rate                               : 0.171 FPS
Count of elements                        : 453
Stream size                              : 11.3 KiB (0%)
Language                                 : Japanese
Default                                  : No
Forced                                   : No

Text #23
ID                                       : 25
Format                                   : UTF-8
Codec ID                                 : S_TEXT/UTF8
Codec ID/Info                            : UTF-8 Plain Text
Duration                                 : 44 min 14 s
Bit rate                                 : 41 b/s
Frame rate                               : 0.177 FPS
Count of elements                        : 470
Stream size                              : 13.6 KiB (0%)
Language                                 : Korean
Default                                  : No
Forced                                   : No

Text #24
ID                                       : 26
Format                                   : UTF-8
Codec ID                                 : S_TEXT/UTF8
Codec ID/Info                            : UTF-8 Plain Text
Duration                                 : 44 min 14 s
Bit rate                                 : 40 b/s
Frame rate                               : 0.174 FPS
Count of elements                        : 462
Stream size                              : 13.1 KiB (0%)
Language                                 : Lithuanian
Default                                  : No
Forced                                   : No

Text #25
ID                                       : 27
Format                                   : UTF-8
Codec ID                                 : S_TEXT/UTF8
Codec ID/Info                            : UTF-8 Plain Text
Duration                                 : 44 min 14 s
Bit rate                                 : 41 b/s
Frame rate                               : 0.176 FPS
Count of elements                        : 466
Stream size                              : 13.5 KiB (0%)
Language                                 : Latvian
Default                                  : No
Forced                                   : No

Text #26
ID                                       : 28
Format                                   : UTF-8
Codec ID                                 : S_TEXT/UTF8
Codec ID/Info                            : UTF-8 Plain Text
Duration                                 : 44 min 14 s
Bit rate                                 : 38 b/s
Frame rate                               : 0.174 FPS
Count of elements                        : 463
Stream size                              : 12.6 KiB (0%)
Language                                 : Malay
Default                                  : No
Forced                                   : No

Text #27
ID                                       : 29
Format                                   : UTF-8
Codec ID                                 : S_TEXT/UTF8
Codec ID/Info                            : UTF-8 Plain Text
Duration                                 : 44 min 14 s
Bit rate                                 : 35 b/s
Frame rate                               : 0.127 FPS
Count of elements                        : 338
Stream size                              : 11.6 KiB (0%)
Language                                 : Dutch
Default                                  : No
Forced                                   : No

Text #28
ID                                       : 30
Format                                   : UTF-8
Codec ID                                 : S_TEXT/UTF8
Codec ID/Info                            : UTF-8 Plain Text
Duration                                 : 44 min 14 s
Bit rate                                 : 36 b/s
Frame rate                               : 0.162 FPS
Count of elements                        : 431
Stream size                              : 11.9 KiB (0%)
Language                                 : Norwegian
Default                                  : No
Forced                                   : No

Text #29
ID                                       : 31
Format                                   : UTF-8
Codec ID                                 : S_TEXT/UTF8
Codec ID/Info                            : UTF-8 Plain Text
Duration                                 : 44 min 14 s
Bit rate                                 : 39 b/s
Frame rate                               : 0.174 FPS
Count of elements                        : 462
Stream size                              : 12.8 KiB (0%)
Language                                 : Polish
Default                                  : No
Forced                                   : No

Text #30
ID                                       : 32
Format                                   : UTF-8
Codec ID                                 : S_TEXT/UTF8
Codec ID/Info                            : UTF-8 Plain Text
Duration                                 : 44 min 14 s
Bit rate                                 : 39 b/s
Frame rate                               : 0.173 FPS
Count of elements                        : 459
Stream size                              : 12.9 KiB (0%)
Title                                    : Portuguese
Language                                 : Portuguese
Default                                  : No
Forced                                   : No

Text #31
ID                                       : 33
Format                                   : UTF-8
Codec ID                                 : S_TEXT/UTF8
Codec ID/Info                            : UTF-8 Plain Text
Duration                                 : 44 min 14 s
Bit rate                                 : 38 b/s
Frame rate                               : 0.173 FPS
Count of elements                        : 460
Stream size                              : 12.6 KiB (0%)
Title                                    : Portuguese (Brazil)
Language                                 : Portuguese (BR)
Default                                  : No
Forced                                   : No

Text #32
ID                                       : 34
Format                                   : UTF-8
Codec ID                                 : S_TEXT/UTF8
Codec ID/Info                            : UTF-8 Plain Text
Duration                                 : 44 min 14 s
Bit rate                                 : 61 b/s
Frame rate                               : 0.177 FPS
Count of elements                        : 470
Stream size                              : 19.9 KiB (0%)
Language                                 : Russian
Default                                  : No
Forced                                   : No

Text #33
ID                                       : 35
Format                                   : UTF-8
Codec ID                                 : S_TEXT/UTF8
Codec ID/Info                            : UTF-8 Plain Text
Duration                                 : 44 min 14 s
Bit rate                                 : 37 b/s
Frame rate                               : 0.175 FPS
Count of elements                        : 464
Stream size                              : 12.0 KiB (0%)
Language                                 : Slovak
Default                                  : No
Forced                                   : No

Text #34
ID                                       : 36
Format                                   : UTF-8
Codec ID                                 : S_TEXT/UTF8
Codec ID/Info                            : UTF-8 Plain Text
Duration                                 : 44 min 14 s
Bit rate                                 : 32 b/s
Frame rate                               : 0.151 FPS
Count of elements                        : 401
Stream size                              : 10.5 KiB (0%)
Language                                 : Slovenian
Default                                  : No
Forced                                   : No

Text #35
ID                                       : 37
Format                                   : UTF-8
Codec ID                                 : S_TEXT/UTF8
Codec ID/Info                            : UTF-8 Plain Text
Duration                                 : 44 min 14 s
Bit rate                                 : 40 b/s
Frame rate                               : 0.173 FPS
Count of elements                        : 458
Stream size                              : 13.2 KiB (0%)
Language                                 : Swedish
Default                                  : No
Forced                                   : No

Text #36
ID                                       : 38
Format                                   : UTF-8
Codec ID                                 : S_TEXT/UTF8
Codec ID/Info                            : UTF-8 Plain Text
Duration                                 : 44 min 14 s
Bit rate                                 : 134 b/s
Frame rate                               : 0.177 FPS
Count of elements                        : 470
Stream size                              : 43.5 KiB (0%)
Language                                 : Tamil
Default                                  : No
Forced                                   : No

Text #37
ID                                       : 39
Format                                   : UTF-8
Codec ID                                 : S_TEXT/UTF8
Codec ID/Info                            : UTF-8 Plain Text
Duration                                 : 44 min 14 s
Bit rate                                 : 121 b/s
Frame rate                               : 0.177 FPS
Count of elements                        : 470
Stream size                              : 39.5 KiB (0%)
Language                                 : Telugu
Default                                  : No
Forced                                   : No

Text #38
ID                                       : 40
Format                                   : UTF-8
Codec ID                                 : S_TEXT/UTF8
Codec ID/Info                            : UTF-8 Plain Text
Duration                                 : 44 min 14 s
Bit rate                                 : 95 b/s
Frame rate                               : 0.177 FPS
Count of elements                        : 469
Stream size                              : 31.1 KiB (0%)
Language                                 : Thai
Default                                  : No
Forced                                   : No

Text #39
ID                                       : 41
Format                                   : UTF-8
Codec ID                                 : S_TEXT/UTF8
Codec ID/Info                            : UTF-8 Plain Text
Duration                                 : 44 min 14 s
Bit rate                                 : 40 b/s
Frame rate                               : 0.168 FPS
Count of elements                        : 446
Stream size                              : 13.3 KiB (0%)
Language                                 : Turkish
Default                                  : No
Forced                                   : No

Text #40
ID                                       : 42
Format                                   : UTF-8
Codec ID                                 : S_TEXT/UTF8
Codec ID/Info                            : UTF-8 Plain Text
Duration                                 : 44 min 14 s
Bit rate                                 : 61 b/s
Frame rate                               : 0.177 FPS
Count of elements                        : 470
Stream size                              : 20.1 KiB (0%)
Language                                 : Ukrainian
Default                                  : No
Forced                                   : No

Text #41
ID                                       : 43
Format                                   : UTF-8
Codec ID                                 : S_TEXT/UTF8
Codec ID/Info                            : UTF-8 Plain Text
Duration                                 : 44 min 14 s
Bit rate                                 : 51 b/s
Frame rate                               : 0.176 FPS
Count of elements                        : 466
Stream size                              : 16.7 KiB (0%)
Language                                 : Vietnamese
Default                                  : No
Forced                                   : No

Text #42
ID                                       : 44
Format                                   : UTF-8
Codec ID                                 : S_TEXT/UTF8
Codec ID/Info                            : UTF-8 Plain Text
Duration                                 : 44 min 14 s
Bit rate                                 : 35 b/s
Frame rate                               : 0.177 FPS
Count of elements                        : 470
Stream size                              : 11.7 KiB (0%)
Title                                    : Cantonese (Traditional)
Language                                 : Cantonese (Hant)
Default                                  : No
Forced                                   : No



Download
File Container: MKV
Video/Audio Codec: H264 (HIGH) EAC3
Video Resolution: 1920x960

1 Response to "[RR/NF] Dark Matter 2024 S01E01 Are You Happy in Your Life 1080p ATVP WEB-DL DDP5 1 H 264-NTb (3.5GB)"
05/10/24
01:32:49
ReadyPlayerOne

Thank You

Please Login to post a comment.
If you don't have any account, please Register.
  • Subscribe my Feeds
  • Facebook
Encoding Queue:  x264  x265

Latest Episodes

Popular Movies and TV Shows

  • Inside No. 9
  • Rebus
  • The Many Lives of Martha Stewart
  • Hidden City
  • She Is Conann
  • Fletch Lives
  • Doctor Who
  • S.W.A.T.
  • A Gentleman in Moscow
  • Nähtamatu võitlus
  • 8 Views of Lake Biwa
  • Imaginary
  • Young Sheldon
  • Blue Bloods
  • Fire Country
  • Easy Rider
  • Challengers
  • 12.12: The Day
  • Sugar
  • Grey's Anatomy
  • Star Trek: Discovery
  • Godzilla x Kong: The New Empire
  • Mothers' Instinct
  • Adagio
  • Elsbeth

Recent Comments

  • 23d1:

    not episode 4 it is episode 3

  • 23d1:

    not episode 4 it is episode 3

  • 23d1:

    not episode 4 it is episode 3

  • 23d1:

    not episode 4 it is episode 3

  • aaroz88:

    Trimas!!

  • mptoo: I don't often ask this, infact this would be the first time, but I don't suppose there is any chance...
  • Cinque_Persson:

    btw:
    quote /quote
    is broken

  • gabrielsyme:

    Sorry but where is the clicknupload link?

  • mike1204:

    Is this episode doomed??? The RMX avi version is only 12 minutes long!!!

  • waanaabe:

    Could PUSHING DAISES kindly be upoaded to CU? THANKS!

  • mentalityx:

    Thx bloke.

Archives