Sign Up   |   Sign In  
Inside No. 9RebusThe Many Lives of Martha StewartHidden CityShe Is ConannFletch LivesDoctor WhoS.W.A.T.A Gentleman in MoscowNähtamatu võitlus8 Views of Lake BiwaImaginaryYoung SheldonBlue BloodsFire CountryEasy RiderChallengers12.12: The DaySugarGrey's AnatomyStar Trek: DiscoveryGodzilla x Kong: The New EmpireMothers' InstinctAdagioElsbeth

Announcements

05/11

2024

1

Comments

Doctor Who 2005 S14E02 The Devils Chord 1080p DSNP WEB-DL DDP5 1 H 264-FLUX
[RR/NF]
Size: 2.1GB mkv H264 (HIGH) / EAC3  HD  1920x1080

Doctor Who
File Information
[img]http://lookpic.com/cdn/i2/t/0511202403542845-1.jpg[/img]
[img]http://lookpic.com/cdn/i2/t/0511202403542845-2.jpg[/img]
[img]http://lookpic.com/cdn/i2/t/0511202403542845-3.jpg[/img]

General
Unique ID                                : 293986275223625553739401899527107183009 (0xDD2BB273209D9191DE4EE8329AEB01A1)
Complete name                            : Doctor Who 2005 S14E02 The Devils Chord 1080p DSNP WEB-DL DDP5 1 H 264-FLUX.mkv
Format                                   : Matroska
Format version                           : Version 4
File size                                : 2.09 GiB
Duration                                 : 49 min 55 s
Overall bit rate mode                    : Variable
Overall bit rate                         : 6 002 kb/s
Frame rate                               : 25.000 FPS
Writing application                      : mkvmerge v79.0 ('Funeral Pyres') 64-bit
Writing library                          : libebml v1.4.4 + libmatroska v1.7.1

Video
ID                                       : 1
Format                                   : AVC
Format/Info                              : Advanced Video Codec
Format profile                           : High@L4
Format settings                          : CABAC / 4 Ref Frames
Format settings, CABAC                   : Yes
Format settings, Reference frames        : 4 frames
Codec ID                                 : V_MPEG4/ISO/AVC
Duration                                 : 49 min 55 s
Bit rate mode                            : Variable
Bit rate                                 : 5 741 kb/s
Maximum bit rate                         : 12.7 Mb/s
Width                                    : 1 920 pixels
Height                                   : 1 080 pixels
Display aspect ratio                     : 16:9
Frame rate mode                          : Constant
Frame rate                               : 25.000 FPS
Color space                              : YUV
Chroma subsampling                       : 4:2:0
Bit depth                                : 8 bits
Scan type                                : Progressive
Bits/(Pixel*Frame)                       : 0.111
Time code of first frame                 : 00:00:00:0000000000
Stream size                              : 2.00 GiB (96%)
Language                                 : English
Default                                  : Yes
Forced                                   : No
Color range                              : Limited
Color primaries                          : BT.709
Transfer characteristics                 : BT.709
Matrix coefficients                      : BT.709

Audio
ID                                       : 2
Format                                   : E-AC-3
Format/Info                              : Enhanced AC-3
Commercial name                          : Dolby Digital Plus
Codec ID                                 : A_EAC3
Duration                                 : 49 min 55 s
Bit rate mode                            : Constant
Bit rate                                 : 256 kb/s
Channel(s)                               : 6 channels
Channel layout                           : L R C LFE Ls Rs
Sampling rate                            : 48.0 kHz
Frame rate                               : 31.250 FPS (1536 SPF)
Compression mode                         : Lossy
Stream size                              : 91.4 MiB (4%)
Language                                 : English
Service kind                             : Complete Main
Default                                  : Yes
Forced                                   : No

Text #1
ID                                       : 3
Format                                   : UTF-8
Codec ID                                 : S_TEXT/UTF8
Codec ID/Info                            : UTF-8 Plain Text
Duration                                 : 48 min 50 s
Bit rate                                 : 53 b/s
Frame rate                               : 0.215 FPS
Count of elements                        : 631
Stream size                              : 19.0 KiB (0%)
Title                                    : British
Language                                 : English (GB)
Default                                  : No
Forced                                   : No

Text #2
ID                                       : 4
Format                                   : UTF-8
Codec ID                                 : S_TEXT/UTF8
Codec ID/Info                            : UTF-8 Plain Text
Duration                                 : 48 min 55 s
Bit rate                                 : 71 b/s
Frame rate                               : 0.295 FPS
Count of elements                        : 866
Stream size                              : 25.6 KiB (0%)
Title                                    : British | SDH
Language                                 : English (GB)
Default                                  : No
Forced                                   : No

Text #3
ID                                       : 5
Format                                   : UTF-8
Codec ID                                 : S_TEXT/UTF8
Codec ID/Info                            : UTF-8 Plain Text
Duration                                 : 49 min 35 s
Bit rate                                 : 47 b/s
Frame rate                               : 0.187 FPS
Count of elements                        : 556
Stream size                              : 17.2 KiB (0%)
Language                                 : Czech
Default                                  : No
Forced                                   : No

Text #4
ID                                       : 6
Format                                   : UTF-8
Codec ID                                 : S_TEXT/UTF8
Codec ID/Info                            : UTF-8 Plain Text
Duration                                 : 49 min 35 s
Bit rate                                 : 48 b/s
Frame rate                               : 0.185 FPS
Count of elements                        : 551
Stream size                              : 17.6 KiB (0%)
Language                                 : Danish
Default                                  : No
Forced                                   : No

Text #5
ID                                       : 7
Format                                   : UTF-8
Codec ID                                 : S_TEXT/UTF8
Codec ID/Info                            : UTF-8 Plain Text
Duration                                 : 49 min 35 s
Bit rate                                 : 48 b/s
Frame rate                               : 0.202 FPS
Count of elements                        : 601
Stream size                              : 17.8 KiB (0%)
Language                                 : German
Default                                  : No
Forced                                   : No

Text #6
ID                                       : 8
Format                                   : UTF-8
Codec ID                                 : S_TEXT/UTF8
Codec ID/Info                            : UTF-8 Plain Text
Duration                                 : 49 min 35 s
Bit rate                                 : 81 b/s
Frame rate                               : 0.200 FPS
Count of elements                        : 596
Stream size                              : 29.5 KiB (0%)
Language                                 : Greek
Default                                  : No
Forced                                   : No

Text #7
ID                                       : 9
Format                                   : UTF-8
Codec ID                                 : S_TEXT/UTF8
Codec ID/Info                            : UTF-8 Plain Text
Duration                                 : 49 min 35 s
Bit rate                                 : 44 b/s
Frame rate                               : 0.165 FPS
Count of elements                        : 491
Stream size                              : 16.2 KiB (0%)
Title                                    : Latin American
Language                                 : Spanish (Latin America)
Default                                  : No
Forced                                   : No

Text #8
ID                                       : 10
Format                                   : UTF-8
Codec ID                                 : S_TEXT/UTF8
Codec ID/Info                            : UTF-8 Plain Text
Duration                                 : 49 min 35 s
Bit rate                                 : 48 b/s
Frame rate                               : 0.197 FPS
Count of elements                        : 587
Stream size                              : 17.6 KiB (0%)
Language                                 : Spanish (ES)
Default                                  : No
Forced                                   : No

Text #9
ID                                       : 11
Format                                   : UTF-8
Codec ID                                 : S_TEXT/UTF8
Codec ID/Info                            : UTF-8 Plain Text
Duration                                 : 49 min 35 s
Bit rate                                 : 46 b/s
Frame rate                               : 0.175 FPS
Count of elements                        : 520
Stream size                              : 16.7 KiB (0%)
Language                                 : Finnish
Default                                  : No
Forced                                   : No

Text #10
ID                                       : 12
Format                                   : UTF-8
Codec ID                                 : S_TEXT/UTF8
Codec ID/Info                            : UTF-8 Plain Text
Duration                                 : 49 min 35 s
Bit rate                                 : 46 b/s
Frame rate                               : 0.203 FPS
Count of elements                        : 604
Stream size                              : 17.0 KiB (0%)
Language                                 : French (FR)
Default                                  : No
Forced                                   : No

Text #11
ID                                       : 13
Format                                   : UTF-8
Codec ID                                 : S_TEXT/UTF8
Codec ID/Info                            : UTF-8 Plain Text
Duration                                 : 49 min 35 s
Bit rate                                 : 45 b/s
Frame rate                               : 0.201 FPS
Count of elements                        : 597
Stream size                              : 16.6 KiB (0%)
Language                                 : Hungarian
Default                                  : No
Forced                                   : No

Text #12
ID                                       : 14
Format                                   : UTF-8
Codec ID                                 : S_TEXT/UTF8
Codec ID/Info                            : UTF-8 Plain Text
Duration                                 : 49 min 35 s
Bit rate                                 : 44 b/s
Frame rate                               : 0.204 FPS
Count of elements                        : 606
Stream size                              : 16.2 KiB (0%)
Language                                 : Italian
Default                                  : No
Forced                                   : No

Text #13
ID                                       : 15
Format                                   : UTF-8
Codec ID                                 : S_TEXT/UTF8
Codec ID/Info                            : UTF-8 Plain Text
Duration                                 : 49 min 35 s
Bit rate                                 : 44 b/s
Frame rate                               : 0.197 FPS
Count of elements                        : 586
Stream size                              : 16.3 KiB (0%)
Language                                 : Japanese
Default                                  : No
Forced                                   : No

Text #14
ID                                       : 16
Format                                   : UTF-8
Codec ID                                 : S_TEXT/UTF8
Codec ID/Info                            : UTF-8 Plain Text
Duration                                 : 49 min 37 s
Bit rate                                 : 55 b/s
Frame rate                               : 0.207 FPS
Count of elements                        : 617
Stream size                              : 20.1 KiB (0%)
Language                                 : Korean
Default                                  : No
Forced                                   : No

Text #15
ID                                       : 17
Format                                   : UTF-8
Codec ID                                 : S_TEXT/UTF8
Codec ID/Info                            : UTF-8 Plain Text
Duration                                 : 49 min 35 s
Bit rate                                 : 42 b/s
Frame rate                               : 0.143 FPS
Count of elements                        : 426
Stream size                              : 15.3 KiB (0%)
Language                                 : Dutch
Default                                  : No
Forced                                   : No

Text #16
ID                                       : 18
Format                                   : UTF-8
Codec ID                                 : S_TEXT/UTF8
Codec ID/Info                            : UTF-8 Plain Text
Duration                                 : 49 min 35 s
Bit rate                                 : 41 b/s
Frame rate                               : 0.138 FPS
Count of elements                        : 412
Stream size                              : 15.1 KiB (0%)
Language                                 : Norwegian
Default                                  : No
Forced                                   : No

Text #17
ID                                       : 19
Format                                   : UTF-8
Codec ID                                 : S_TEXT/UTF8
Codec ID/Info                            : UTF-8 Plain Text
Duration                                 : 49 min 35 s
Bit rate                                 : 44 b/s
Frame rate                               : 0.194 FPS
Count of elements                        : 576
Stream size                              : 16.0 KiB (0%)
Language                                 : Polish
Default                                  : No
Forced                                   : No

Text #18
ID                                       : 20
Format                                   : UTF-8
Codec ID                                 : S_TEXT/UTF8
Codec ID/Info                            : UTF-8 Plain Text
Duration                                 : 49 min 35 s
Bit rate                                 : 48 b/s
Frame rate                               : 0.199 FPS
Count of elements                        : 592
Stream size                              : 17.6 KiB (0%)
Title                                    : Brazilian
Language                                 : Portuguese (BR)
Default                                  : No
Forced                                   : No

Text #19
ID                                       : 21
Format                                   : UTF-8
Codec ID                                 : S_TEXT/UTF8
Codec ID/Info                            : UTF-8 Plain Text
Duration                                 : 49 min 35 s
Bit rate                                 : 48 b/s
Frame rate                               : 0.205 FPS
Count of elements                        : 610
Stream size                              : 17.5 KiB (0%)
Language                                 : Portuguese (PT)
Default                                  : No
Forced                                   : No

Text #20
ID                                       : 22
Format                                   : UTF-8
Codec ID                                 : S_TEXT/UTF8
Codec ID/Info                            : UTF-8 Plain Text
Duration                                 : 48 min 50 s
Bit rate                                 : 46 b/s
Frame rate                               : 0.162 FPS
Count of elements                        : 476
Stream size                              : 16.5 KiB (0%)
Language                                 : Romanian
Default                                  : No
Forced                                   : No

Text #21
ID                                       : 23
Format                                   : UTF-8
Codec ID                                 : S_TEXT/UTF8
Codec ID/Info                            : UTF-8 Plain Text
Duration                                 : 49 min 35 s
Bit rate                                 : 43 b/s
Frame rate                               : 0.196 FPS
Count of elements                        : 584
Stream size                              : 16.0 KiB (0%)
Language                                 : Slovak
Default                                  : No
Forced                                   : No

Text #22
ID                                       : 24
Format                                   : UTF-8
Codec ID                                 : S_TEXT/UTF8
Codec ID/Info                            : UTF-8 Plain Text
Duration                                 : 49 min 35 s
Bit rate                                 : 40 b/s
Frame rate                               : 0.176 FPS
Count of elements                        : 524
Stream size                              : 14.6 KiB (0%)
Language                                 : Swedish
Default                                  : No
Forced                                   : No

Text #23
ID                                       : 25
Format                                   : UTF-8
Codec ID                                 : S_TEXT/UTF8
Codec ID/Info                            : UTF-8 Plain Text
Duration                                 : 49 min 35 s
Bit rate                                 : 47 b/s
Frame rate                               : 0.206 FPS
Count of elements                        : 612
Stream size                              : 17.2 KiB (0%)
Language                                 : Turkish
Default                                  : No
Forced                                   : No

Text #24
ID                                       : 26
Format                                   : UTF-8
Codec ID                                 : S_TEXT/UTF8
Codec ID/Info                            : UTF-8 Plain Text
Duration                                 : 49 min 37 s
Bit rate                                 : 45 b/s
Frame rate                               : 0.206 FPS
Count of elements                        : 613
Stream size                              : 16.6 KiB (0%)
Title                                    : Traditional
Language                                 : Chinese (Traditional)
Default                                  : No
Forced                                   : No

Menu
00:04:51.520                             : en:Intro
00:05:24.600                             : en:Scene 1
00:10:22.080                             : en:Scene 2
00:20:36.760                             : en:Scene 3
00:33:27.520                             : en:Scene 4
00:45:03.160                             : en:Scene 5
00:49:04.760                             : en:Credits



Download
File Container: MKV
Video/Audio Codec: H264 (HIGH) EAC3
Video Resolution: 1920x1080

1 Response to "[RR/NF] Doctor Who 2005 S14E02 The Devils Chord 1080p DSNP WEB-DL DDP5 1 H 264-FLUX (2.1GB)"
05/11/24
04:10:46
ReadyPlayerOne

Thank you!

Please Login to post a comment.
If you don't have any account, please Register.
  • Subscribe my Feeds
  • Facebook
Encoding Queue:  x264  x265

Latest Episodes

Popular Movies and TV Shows

  • Inside No. 9
  • Rebus
  • The Many Lives of Martha Stewart
  • Hidden City
  • She Is Conann
  • Fletch Lives
  • Doctor Who
  • S.W.A.T.
  • A Gentleman in Moscow
  • Nähtamatu võitlus
  • 8 Views of Lake Biwa
  • Imaginary
  • Young Sheldon
  • Blue Bloods
  • Fire Country
  • Easy Rider
  • Challengers
  • 12.12: The Day
  • Sugar
  • Grey's Anatomy
  • Star Trek: Discovery
  • Godzilla x Kong: The New Empire
  • Mothers' Instinct
  • Adagio
  • Elsbeth

Recent Comments

  • 23d1:

    not episode 4 it is episode 3

  • 23d1:

    not episode 4 it is episode 3

  • 23d1:

    not episode 4 it is episode 3

  • 23d1:

    not episode 4 it is episode 3

  • aaroz88:

    Trimas!!

  • mptoo: I don't often ask this, infact this would be the first time, but I don't suppose there is any chance...
  • Cinque_Persson:

    btw:
    quote /quote
    is broken

  • gabrielsyme:

    Sorry but where is the clicknupload link?

  • mike1204:

    Is this episode doomed??? The RMX avi version is only 12 minutes long!!!

  • waanaabe:

    Could PUSHING DAISES kindly be upoaded to CU? THANKS!

  • mentalityx:

    Thx bloke.

Archives