Sign Up   |   Sign In  
EvilWalkerWWE NXTBratsThe BraidIn the Line of FireColin from AccountsReginald the VampireInside No. 9The Artifice GirlOriginCamille 2000The AcolytePresumed InnocentDark MatterThe PrimevalsMysteries of the Terracotta WarriorsCashbackThe Big Door PrizeThe Bold and the BeautifulTryingHow Music Got FreeLost SoulzPet SemataryThe Daily Show

Announcements

06/08

2024

No

Comments

Doctor Who 2023 S01E06 Rogue 720p DSNP WEB-DL DD 5 1 H 264-playWEB
[RR/NF/CU]
Size: 1.1GB mkv H264 (HIGH) / EAC3  HD  1280x720

Doctor Who
  • Doctor Who (2023-)
  • Genre: Adventure | Drama | Sci-Fi
  • Original Language: English
  • Original Network: Disney+
  • Storyline: The Time Lord known as the Doctor travels through space and time with his companions, having incredible adventures and facing dangerous enemies.
File Information
[img]http://lookpic.com/cdn/i2/t/0608202412045456-1.jpg[/img]
[img]http://lookpic.com/cdn/i2/t/0608202412045456-2.jpg[/img]
[img]http://lookpic.com/cdn/i2/t/0608202412045456-3.jpg[/img]

General
Unique ID                                : 201178136482031892685200886536698215525 (0x97597FEDB1BBBEBB7F57E5D18F223C65)
Complete name                            : Doctor Who 2023 S01E06 Rogue 720p DSNP WEB-DL DD 5 1 H 264-playWEB.mkv
Format                                   : Matroska
Format version                           : Version 4
File size                                : 1.05 GiB
Duration                                 : 44 min 58 s
Overall bit rate mode                    : Variable
Overall bit rate                         : 3 345 kb/s
Frame rate                               : 25.000 FPS
Writing application                      : mkvmerge v85.0 ('Shame For You') 64-bit
Writing library                          : libebml v1.4.5 + libmatroska v1.7.1

Video
ID                                       : 1
Format                                   : AVC
Format/Info                              : Advanced Video Codec
Format profile                           : [email protected]
Format settings                          : CABAC / 4 Ref Frames
Format settings, CABAC                   : Yes
Format settings, Reference frames        : 4 frames
Codec ID                                 : V_MPEG4/ISO/AVC
Duration                                 : 44 min 58 s
Bit rate mode                            : Variable
Bit rate                                 : 3 084 kb/s
Maximum bit rate                         : 6 375 kb/s
Width                                    : 1 280 pixels
Height                                   : 720 pixels
Display aspect ratio                     : 16:9
Frame rate mode                          : Constant
Frame rate                               : 25.000 FPS
Color space                              : YUV
Chroma subsampling                       : 4:2:0
Bit depth                                : 8 bits
Scan type                                : Progressive
Bits/(Pixel*Frame)                       : 0.134
Time code of first frame                 : 00:00:00:0000000000
Stream size                              : 992 MiB (92%)
Default                                  : Yes
Forced                                   : No
Color range                              : Limited
Color primaries                          : BT.709
Transfer characteristics                 : BT.709
Matrix coefficients                      : BT.709

Audio
ID                                       : 2
Format                                   : E-AC-3
Format/Info                              : Enhanced AC-3
Commercial name                          : Dolby Digital Plus
Codec ID                                 : A_EAC3
Duration                                 : 44 min 58 s
Bit rate mode                            : Constant
Bit rate                                 : 256 kb/s
Channel(s)                               : 6 channels
Channel layout                           : L R C LFE Ls Rs
Sampling rate                            : 48.0 kHz
Frame rate                               : 31.250 FPS (1536 SPF)
Compression mode                         : Lossy
Stream size                              : 82.4 MiB (8%)
Language                                 : English
Service kind                             : Complete Main
Default                                  : Yes
Forced                                   : No

Text #1
ID                                       : 3
Format                                   : UTF-8
Codec ID                                 : S_TEXT/UTF8
Codec ID/Info                            : UTF-8 Plain Text
Duration                                 : 44 min 41 s
Bit rate                                 : 61 b/s
Frame rate                               : 0.216 FPS
Count of elements                        : 578
Stream size                              : 20.2 KiB (0%)
Language                                 : Czech
Default                                  : No
Forced                                   : No

Text #2
ID                                       : 4
Format                                   : UTF-8
Codec ID                                 : S_TEXT/UTF8
Codec ID/Info                            : UTF-8 Plain Text
Duration                                 : 44 min 39 s
Bit rate                                 : 60 b/s
Frame rate                               : 0.216 FPS
Count of elements                        : 578
Stream size                              : 19.8 KiB (0%)
Language                                 : Danish
Default                                  : No
Forced                                   : No

Text #3
ID                                       : 5
Format                                   : UTF-8
Codec ID                                 : S_TEXT/UTF8
Codec ID/Info                            : UTF-8 Plain Text
Duration                                 : 44 min 39 s
Bit rate                                 : 59 b/s
Frame rate                               : 0.238 FPS
Count of elements                        : 638
Stream size                              : 19.6 KiB (0%)
Language                                 : German
Default                                  : No
Forced                                   : No

Text #4
ID                                       : 6
Format                                   : UTF-8
Codec ID                                 : S_TEXT/UTF8
Codec ID/Info                            : UTF-8 Plain Text
Duration                                 : 44 min 41 s
Bit rate                                 : 98 b/s
Frame rate                               : 0.235 FPS
Count of elements                        : 630
Stream size                              : 32.1 KiB (0%)
Language                                 : Greek
Default                                  : No
Forced                                   : No

Text #5
ID                                       : 7
Format                                   : UTF-8
Codec ID                                 : S_TEXT/UTF8
Codec ID/Info                            : UTF-8 Plain Text
Duration                                 : 43 min 54 s
Bit rate                                 : 62 b/s
Frame rate                               : 0.250 FPS
Count of elements                        : 658
Stream size                              : 19.9 KiB (0%)
Language                                 : English
Default                                  : No
Forced                                   : No

Text #6
ID                                       : 8
Format                                   : UTF-8
Codec ID                                 : S_TEXT/UTF8
Codec ID/Info                            : UTF-8 Plain Text
Duration                                 : 43 min 56 s
Bit rate                                 : 75 b/s
Frame rate                               : 0.302 FPS
Count of elements                        : 795
Stream size                              : 24.2 KiB (0%)
Title                                    : British (SDH)
Language                                 : English
Default                                  : No
Forced                                   : No

Text #7
ID                                       : 9
Format                                   : UTF-8
Codec ID                                 : S_TEXT/UTF8
Codec ID/Info                            : UTF-8 Plain Text
Duration                                 : 44 min 41 s
Bit rate                                 : 55 b/s
Frame rate                               : 0.196 FPS
Count of elements                        : 525
Stream size                              : 18.3 KiB (0%)
Title                                    : Latin American
Language                                 : Spanish
Default                                  : No
Forced                                   : No

Text #8
ID                                       : 10
Format                                   : UTF-8
Codec ID                                 : S_TEXT/UTF8
Codec ID/Info                            : UTF-8 Plain Text
Duration                                 : 44 min 41 s
Bit rate                                 : 61 b/s
Frame rate                               : 0.222 FPS
Count of elements                        : 596
Stream size                              : 20.0 KiB (0%)
Title                                    : European
Language                                 : Spanish
Default                                  : No
Forced                                   : No

Text #9
ID                                       : 11
Format                                   : UTF-8
Codec ID                                 : S_TEXT/UTF8
Codec ID/Info                            : UTF-8 Plain Text
Duration                                 : 44 min 41 s
Bit rate                                 : 60 b/s
Frame rate                               : 0.208 FPS
Count of elements                        : 558
Stream size                              : 19.9 KiB (0%)
Language                                 : Finnish
Default                                  : No
Forced                                   : No

Text #10
ID                                       : 12
Format                                   : UTF-8
Codec ID                                 : S_TEXT/UTF8
Codec ID/Info                            : UTF-8 Plain Text
Duration                                 : 44 min 41 s
Bit rate                                 : 58 b/s
Frame rate                               : 0.240 FPS
Count of elements                        : 643
Stream size                              : 19.0 KiB (0%)
Title                                    : European
Language                                 : French
Default                                  : No
Forced                                   : No

Text #11
ID                                       : 13
Format                                   : UTF-8
Codec ID                                 : S_TEXT/UTF8
Codec ID/Info                            : UTF-8 Plain Text
Duration                                 : 44 min 41 s
Bit rate                                 : 57 b/s
Frame rate                               : 0.236 FPS
Count of elements                        : 632
Stream size                              : 18.9 KiB (0%)
Language                                 : Hungarian
Default                                  : No
Forced                                   : No

Text #12
ID                                       : 14
Format                                   : UTF-8
Codec ID                                 : S_TEXT/UTF8
Codec ID/Info                            : UTF-8 Plain Text
Duration                                 : 44 min 41 s
Bit rate                                 : 56 b/s
Frame rate                               : 0.239 FPS
Count of elements                        : 642
Stream size                              : 18.3 KiB (0%)
Language                                 : Italian
Default                                  : No
Forced                                   : No

Text #13
ID                                       : 15
Format                                   : UTF-8
Codec ID                                 : S_TEXT/UTF8
Codec ID/Info                            : UTF-8 Plain Text
Duration                                 : 44 min 43 s
Bit rate                                 : 54 b/s
Frame rate                               : 0.241 FPS
Count of elements                        : 647
Stream size                              : 17.9 KiB (0%)
Language                                 : Japanese
Default                                  : No
Forced                                   : No

Text #14
ID                                       : 16
Format                                   : UTF-8
Codec ID                                 : S_TEXT/UTF8
Codec ID/Info                            : UTF-8 Plain Text
Duration                                 : 44 min 43 s
Bit rate                                 : 68 b/s
Frame rate                               : 0.241 FPS
Count of elements                        : 648
Stream size                              : 22.4 KiB (0%)
Language                                 : Korean
Default                                  : No
Forced                                   : No

Text #15
ID                                       : 17
Format                                   : UTF-8
Codec ID                                 : S_TEXT/UTF8
Codec ID/Info                            : UTF-8 Plain Text
Duration                                 : 44 min 41 s
Bit rate                                 : 56 b/s
Frame rate                               : 0.173 FPS
Count of elements                        : 463
Stream size                              : 18.4 KiB (0%)
Language                                 : Dutch
Default                                  : No
Forced                                   : No

Text #16
ID                                       : 18
Format                                   : UTF-8
Codec ID                                 : S_TEXT/UTF8
Codec ID/Info                            : UTF-8 Plain Text
Duration                                 : 44 min 39 s
Bit rate                                 : 57 b/s
Frame rate                               : 0.167 FPS
Count of elements                        : 447
Stream size                              : 18.7 KiB (0%)
Language                                 : Norwegian
Default                                  : No
Forced                                   : No

Text #17
ID                                       : 19
Format                                   : UTF-8
Codec ID                                 : S_TEXT/UTF8
Codec ID/Info                            : UTF-8 Plain Text
Duration                                 : 44 min 41 s
Bit rate                                 : 56 b/s
Frame rate                               : 0.227 FPS
Count of elements                        : 608
Stream size                              : 18.3 KiB (0%)
Language                                 : Polish
Default                                  : No
Forced                                   : No

Text #18
ID                                       : 20
Format                                   : UTF-8
Codec ID                                 : S_TEXT/UTF8
Codec ID/Info                            : UTF-8 Plain Text
Duration                                 : 44 min 41 s
Bit rate                                 : 59 b/s
Frame rate                               : 0.236 FPS
Count of elements                        : 632
Stream size                              : 19.4 KiB (0%)
Title                                    : Brazilian
Language                                 : Portuguese
Default                                  : No
Forced                                   : No

Text #19
ID                                       : 21
Format                                   : UTF-8
Codec ID                                 : S_TEXT/UTF8
Codec ID/Info                            : UTF-8 Plain Text
Duration                                 : 44 min 41 s
Bit rate                                 : 59 b/s
Frame rate                               : 0.239 FPS
Count of elements                        : 642
Stream size                              : 19.6 KiB (0%)
Title                                    : European
Language                                 : Portuguese
Default                                  : No
Forced                                   : No

Text #20
ID                                       : 22
Format                                   : UTF-8
Codec ID                                 : S_TEXT/UTF8
Codec ID/Info                            : UTF-8 Plain Text
Duration                                 : 44 min 41 s
Bit rate                                 : 56 b/s
Frame rate                               : 0.186 FPS
Count of elements                        : 500
Stream size                              : 18.5 KiB (0%)
Language                                 : Romanian
Default                                  : No
Forced                                   : No

Text #21
ID                                       : 23
Format                                   : UTF-8
Codec ID                                 : S_TEXT/UTF8
Codec ID/Info                            : UTF-8 Plain Text
Duration                                 : 44 min 41 s
Bit rate                                 : 55 b/s
Frame rate                               : 0.230 FPS
Count of elements                        : 618
Stream size                              : 18.3 KiB (0%)
Language                                 : Slovak
Default                                  : No
Forced                                   : No

Text #22
ID                                       : 24
Format                                   : UTF-8
Codec ID                                 : S_TEXT/UTF8
Codec ID/Info                            : UTF-8 Plain Text
Duration                                 : 44 min 39 s
Bit rate                                 : 58 b/s
Frame rate                               : 0.220 FPS
Count of elements                        : 590
Stream size                              : 19.1 KiB (0%)
Language                                 : Swedish
Default                                  : No
Forced                                   : No

Text #23
ID                                       : 25
Format                                   : UTF-8
Codec ID                                 : S_TEXT/UTF8
Codec ID/Info                            : UTF-8 Plain Text
Duration                                 : 44 min 41 s
Bit rate                                 : 60 b/s
Frame rate                               : 0.241 FPS
Count of elements                        : 645
Stream size                              : 19.7 KiB (0%)
Language                                 : Turkish
Default                                  : No
Forced                                   : No

Text #24
ID                                       : 26
Format                                   : UTF-8
Codec ID                                 : S_TEXT/UTF8
Codec ID/Info                            : UTF-8 Plain Text
Duration                                 : 44 min 43 s
Bit rate                                 : 58 b/s
Frame rate                               : 0.242 FPS
Count of elements                        : 649
Stream size                              : 19.2 KiB (0%)
Title                                    : Traditional
Language                                 : Chinese
Default                                  : No
Forced                                   : No

Menu
00:01:29.800                             : en:Intro
00:01:57.240                             : en:Scene 1
00:44:12.880                             : en:Credits



Download
File Container: MKV
Video/Audio Codec: H264 (HIGH) EAC3
Video Resolution: 1280x720
Please Login to post a comment.
If you don't have any account, please Register.
  • Subscribe my Feeds
  • Facebook
Encoding Queue:  x264  x265

Latest Episodes

Popular Movies and TV Shows

  • Evil
  • Walker
  • WWE NXT
  • Brats
  • The Braid
  • In the Line of Fire
  • Colin from Accounts
  • Reginald the Vampire
  • Inside No. 9
  • The Artifice Girl
  • Origin
  • Camille 2000
  • The Acolyte
  • Presumed Innocent
  • Dark Matter
  • The Primevals
  • Mysteries of the Terracotta Warriors
  • Cashback
  • The Big Door Prize
  • The Bold and the Beautiful
  • Trying
  • How Music Got Free
  • Lost Soulz
  • Pet Sematary
  • The Daily Show

Recent Comments

  • Diggety247:

    BrokenHanded, Try using a DL manager.

  • BrokenHanded: clicknupload does not seem to work for past few days. keep getting an error saying the site is sendi...
  • Bud: Helps if you actually add these to the "Late Night with Seth Meyers" page too...
  • rambaldi70:

    Hy! Right now, my download speed : 1 Mb/s
    this is ok?
    Tx answer

  • Cinque_Persson: At 183 MB this had to be something completely different. In fact it's just the main actors commentin...
  • meyat74:

    my bad, should be full season

  • Oscar2:

    Halo "is" a good show

  • MeH:

    "one of the most impressive scenes"

Archives