Sign Up   |   Sign In  
WWE NXTWalkerColin from AccountsColdplay Live in São PauloPulp FictionThe Bold and the BeautifulReginald the VampireInside No. 9The Artifice GirlOriginThe PrimevalsThe AcolytePresumed InnocentDark MatterMysteries of the Terracotta WarriorsCamille 2000Ninja TerminatorThe Big Door PrizeTryingAcapulcoHow Music Got FreeLost SoulzPet SemataryThe Daily ShowWWE Smackdown!

Announcements

06/05

2024

No

Comments

FBI Most Wanted S05E01 Above and Beyond 720p AMZN WEB-DL DDP5 1 H 264-FLUX
[RR/NF/CU]
Size: 1.1GB mkv H264 (HIGH) / EAC3  HD  1280x720

FBI: Most Wanted
File Information
[img]http://lookpic.com/cdn/i2/t/0605202408143218-1.jpg[/img]
[img]http://lookpic.com/cdn/i2/t/0605202408143218-2.jpg[/img]
[img]http://lookpic.com/cdn/i2/t/0605202408143218-3.jpg[/img]

General
Unique ID                                : 10458817284529048739427251062892255949 (0x7DE4B81213CEE9C531DFDFF3E45DACD)
Complete name                            : FBI Most Wanted S05E01 Above and Beyond 720p AMZN WEB-DL DDP5 1 H 264-FLUX.mkv
Format                                   : Matroska
Format version                           : Version 4
File size                                : 1.06 GiB
Duration                                 : 43 min 6 s
Overall bit rate                         : 3 533 kb/s
Frame rate                               : 23.976 FPS
Writing application                      : mkvmerge v82.0 ('I'm The President') 64-bit
Writing library                          : libebml v1.4.5 + libmatroska v1.7.1

Video
ID                                       : 1
Format                                   : AVC
Format/Info                              : Advanced Video Codec
Format profile                           : [email protected]
Format settings                          : CABAC / 4 Ref Frames
Format settings, CABAC                   : Yes
Format settings, Reference frames        : 4 frames
Codec ID                                 : V_MPEG4/ISO/AVC
Duration                                 : 43 min 6 s
Bit rate mode                            : Constant
Bit rate                                 : 2 891 kb/s
Nominal bit rate                         : 4 000 kb/s
Width                                    : 1 280 pixels
Height                                   : 720 pixels
Display aspect ratio                     : 16:9
Frame rate mode                          : Constant
Frame rate                               : 23.976 (24000/1001) FPS
Color space                              : YUV
Chroma subsampling                       : 4:2:0
Bit depth                                : 8 bits
Scan type                                : Progressive
Bits/(Pixel*Frame)                       : 0.131
Stream size                              : 891 MiB (82%)
Language                                 : English (US)
Default                                  : Yes
Forced                                   : No
Color range                              : Limited
Color primaries                          : BT.709
Transfer characteristics                 : BT.709
Matrix coefficients                      : BT.709

Audio
ID                                       : 2
Format                                   : E-AC-3
Format/Info                              : Enhanced AC-3
Commercial name                          : Dolby Digital Plus
Codec ID                                 : A_EAC3
Duration                                 : 43 min 6 s
Bit rate mode                            : Constant
Bit rate                                 : 640 kb/s
Channel(s)                               : 6 channels
Channel layout                           : L R C LFE Ls Rs
Sampling rate                            : 48.0 kHz
Frame rate                               : 31.250 FPS (1536 SPF)
Compression mode                         : Lossy
Stream size                              : 197 MiB (18%)
Language                                 : English (US)
Service kind                             : Complete Main
Default                                  : Yes
Forced                                   : No

Text #1
ID                                       : 3
Format                                   : UTF-8
Codec ID                                 : S_TEXT/UTF8
Codec ID/Info                            : UTF-8 Plain Text
Duration                                 : 42 min 4 s
Bit rate                                 : 92 b/s
Frame rate                               : 0.383 FPS
Count of elements                        : 966
Stream size                              : 28.6 KiB (0%)
Language                                 : English (US)
Default                                  : No
Forced                                   : No

Text #2
ID                                       : 4
Format                                   : UTF-8
Codec ID                                 : S_TEXT/UTF8
Codec ID/Info                            : UTF-8 Plain Text
Duration                                 : 42 min 58 s
Bit rate                                 : 96 b/s
Frame rate                               : 0.416 FPS
Count of elements                        : 1072
Stream size                              : 30.2 KiB (0%)
Title                                    : SDH
Language                                 : English (US)
Default                                  : No
Forced                                   : No



Download
File Container: MKV
Video/Audio Codec: H264 (HIGH) EAC3
Video Resolution: 1280x720
Please Login to post a comment.
If you don't have any account, please Register.
  • Subscribe my Feeds
  • Facebook
Encoding Queue:  x264  x265

Latest Episodes

Popular Movies and TV Shows

  • WWE NXT
  • Walker
  • Colin from Accounts
  • Coldplay Live in São Paulo
  • Pulp Fiction
  • The Bold and the Beautiful
  • Reginald the Vampire
  • Inside No. 9
  • The Artifice Girl
  • Origin
  • The Primevals
  • The Acolyte
  • Presumed Innocent
  • Dark Matter
  • Mysteries of the Terracotta Warriors
  • Camille 2000
  • Ninja Terminator
  • The Big Door Prize
  • Trying
  • Acapulco
  • How Music Got Free
  • Lost Soulz
  • Pet Sematary
  • The Daily Show
  • WWE Smackdown!

Recent Comments

  • KissclTum: [url=https://kisstom.ru/prices]имплант с коронкой цена кисс [/url] Tegs: и...
  • Diggety247:

    BrokenHanded, Try using a DL manager.

  • BrokenHanded: clicknupload does not seem to work for past few days. keep getting an error saying the site is sendi...
  • Bud: Helps if you actually add these to the "Late Night with Seth Meyers" page too...
  • rambaldi70:

    Hy! Right now, my download speed : 1 Mb/s
    this is ok?
    Tx answer

  • Cinque_Persson: At 183 MB this had to be something completely different. In fact it's just the main actors commentin...
  • meyat74:

    my bad, should be full season

  • Oscar2:

    Halo "is" a good show

  • MeH:

    "one of the most impressive scenes"

  • rappet:

    Unfortunately, episode 2 not playing and episode 3 half missing (only 37 minutes long).

  • Anovani:

    Nice 1

  • shark:

    Will there be a sequel?

  • sjors:

    This release in in Russian with Russian subs. No English.

  • RapidRabbit98: I'll ask again Forged in Fire Series 11 episode 1 - anyone have it?

Archives