Sign Up   |   Sign In  
Young SheldonTrackerQueen of the GypsiesBrigada NimicTMZ Presents: The Downfall of DiddyColombianaThe Green VeilBodkinDevil in the FleshThe SimpsonsTales of Ordinary MadnessArthur the KingThe EqualizerCSI: VegasThe SympathizerGolden KamuyChallengersBaby DriverKrapopolisBob's BurgersThe Great NorthTriple FrontierA Walk Among the TombstonesDawn of the Planet of the ApesBeacon 23

Announcements

05/15

2024

1

Comments

FBI Most Wanted S05E12 Derby Day 720p AMZN WEB-DL DDP5 1 H 264-FLUX
[RR/NF/CU]
Size: 1.3GB mkv H264 (HIGH) / EAC3  HD  1280x720

FBI: Most Wanted
File Information
[img]http://lookpic.com/cdn/i2/t/0515202406542381-1.jpg[/img]
[img]http://lookpic.com/cdn/i2/t/0515202406542381-2.jpg[/img]
[img]http://lookpic.com/cdn/i2/t/0515202406542381-3.jpg[/img]

General
Unique ID                                : 291607103285909827506019540257862111606 (0xDB617C3778D4E68093D7B9CA9038D176)
Complete name                            : FBI Most Wanted S05E12 Derby Day 720p AMZN WEB-DL DDP5 1 H 264-FLUX.mkv
Format                                   : Matroska
Format version                           : Version 4
File size                                : 1.33 GiB
Duration                                 : 42 min 20 s
Overall bit rate                         : 4 512 kb/s
Frame rate                               : 23.976 FPS
Writing application                      : mkvmerge v83.0 ('Circle Of Friends') 64-bit
Writing library                          : libebml v1.4.5 + libmatroska v1.7.1

Video
ID                                       : 1
Format                                   : AVC
Format/Info                              : Advanced Video Codec
Format profile                           : [email protected]
Format settings                          : CABAC / 4 Ref Frames
Format settings, CABAC                   : Yes
Format settings, Reference frames        : 4 frames
Codec ID                                 : V_MPEG4/ISO/AVC
Duration                                 : 42 min 20 s
Bit rate mode                            : Constant
Bit rate                                 : 3 870 kb/s
Nominal bit rate                         : 6 000 kb/s
Width                                    : 1 280 pixels
Height                                   : 720 pixels
Display aspect ratio                     : 16:9
Frame rate mode                          : Constant
Frame rate                               : 23.976 (24000/1001) FPS
Color space                              : YUV
Chroma subsampling                       : 4:2:0
Bit depth                                : 8 bits
Scan type                                : Progressive
Bits/(Pixel*Frame)                       : 0.175
Stream size                              : 1.14 GiB (86%)
Language                                 : English (US)
Default                                  : Yes
Forced                                   : No
Color range                              : Limited
Color primaries                          : BT.709
Transfer characteristics                 : BT.709
Matrix coefficients                      : BT.709

Audio
ID                                       : 2
Format                                   : E-AC-3
Format/Info                              : Enhanced AC-3
Commercial name                          : Dolby Digital Plus
Codec ID                                 : A_EAC3
Duration                                 : 42 min 20 s
Bit rate mode                            : Constant
Bit rate                                 : 640 kb/s
Channel(s)                               : 6 channels
Channel layout                           : L R C LFE Ls Rs
Sampling rate                            : 48.0 kHz
Frame rate                               : 31.250 FPS (1536 SPF)
Compression mode                         : Lossy
Stream size                              : 194 MiB (14%)
Language                                 : English
Service kind                             : Complete Main
Default                                  : Yes
Forced                                   : No

Text #1
ID                                       : 3
Format                                   : UTF-8
Codec ID                                 : S_TEXT/UTF8
Codec ID/Info                            : UTF-8 Plain Text
Duration                                 : 41 min 39 s
Bit rate                                 : 92 b/s
Frame rate                               : 0.355 FPS
Count of elements                        : 886
Stream size                              : 28.3 KiB (0%)
Language                                 : English (US)
Default                                  : No
Forced                                   : No

Text #2
ID                                       : 4
Format                                   : UTF-8
Codec ID                                 : S_TEXT/UTF8
Codec ID/Info                            : UTF-8 Plain Text
Duration                                 : 42 min 13 s
Bit rate                                 : 95 b/s
Frame rate                               : 0.377 FPS
Count of elements                        : 955
Stream size                              : 29.4 KiB (0%)
Title                                    : SDH
Language                                 : English (US)
Default                                  : No
Forced                                   : No

Menu
00:00:00.000                             : en:Scene 1
00:41:48.000                             : en:End Credits



Download
File Container: MKV
Video/Audio Codec: H264 (HIGH) EAC3
Video Resolution: 1280x720

1 Response to "[RR/NF/CU] FBI Most Wanted S05E12 Derby Day 720p AMZN WEB-DL DDP5 1 H 264-FLUX (1.3GB)"
05/15/24
07:30:41
ReadyPlayerOne

Thank You

Please Login to post a comment.
If you don't have any account, please Register.
  • Subscribe my Feeds
  • Facebook
Encoding Queue:  x264  x265

Latest Episodes

Popular Movies and TV Shows

  • Young Sheldon
  • Tracker
  • Queen of the Gypsies
  • Brigada Nimic
  • TMZ Presents: The Downfall of Diddy
  • Colombiana
  • The Green Veil
  • Bodkin
  • Devil in the Flesh
  • The Simpsons
  • Tales of Ordinary Madness
  • Arthur the King
  • The Equalizer
  • CSI: Vegas
  • The Sympathizer
  • Golden Kamuy
  • Challengers
  • Baby Driver
  • Krapopolis
  • Bob's Burgers
  • The Great North
  • Triple Frontier
  • A Walk Among the Tombstones
  • Dawn of the Planet of the Apes
  • Beacon 23

Recent Comments

  • Bud: Is the search engine down for everyone, or just me? It just says 'You're forbidden!' whenever I lo...
  • 23d1:

    not episode 4 it is episode 3

  • 23d1:

    not episode 4 it is episode 3

  • 23d1:

    not episode 4 it is episode 3

  • 23d1:

    not episode 4 it is episode 3

  • aaroz88:

    Trimas!!

  • mptoo: I don't often ask this, infact this would be the first time, but I don't suppose there is any chance...
  • Cinque_Persson:

    btw:
    quote /quote
    is broken

  • gabrielsyme:

    Sorry but where is the clicknupload link?

  • mike1204:

    Is this episode doomed??? The RMX avi version is only 12 minutes long!!!

  • waanaabe:

    Could PUSHING DAISES kindly be upoaded to CU? THANKS!

Archives