Sign Up   |   Sign In  
WWE NXTEvilThe BoysBratsIn the Line of FireThe BraidWalkerColin from AccountsCriminal MindsThe Artifice GirlOriginColdplay Live in São PauloThe AcolytePresumed InnocentDark MatterThe PrimevalsMysteries of the Terracotta WarriorsCamille 2000The Big Door PrizeThe Bold and the BeautifulTryingLost SoulzHow Music Got FreeThe Beast in the JungleThe Daily Show

Announcements

06/06

2024

No

Comments

Fellow Travelers S01E01 Youre Wonderful 1080p AMZN WEB-DL DDP5 1 H 264-FLUX
[RR/NF]
Size: 3.6GB mkv H264 (HIGH) / EAC3  HD  1920x1080

Fellow Travelers
File Information
[img]http://lookpic.com/cdn/i2/t/0606202415592519-1.jpg[/img]
[img]http://lookpic.com/cdn/i2/t/0606202415592519-2.jpg[/img]
[img]http://lookpic.com/cdn/i2/t/0606202415592519-3.jpg[/img]

General
Unique ID                                : 155935986708339262193905497587358613926 (0x75502DBA19B0DA419637BEC3749FC1A6)
Complete name                            : Fellow Travelers S01E01 Youre Wonderful 1080p AMZN WEB-DL DDP5 1 H 264-FLUX.mkv
Format                                   : Matroska
Format version                           : Version 4
File size                                : 3.60 GiB
Duration                                 : 1 h 2 min
Overall bit rate                         : 8 182 kb/s
Frame rate                               : 23.976 FPS
Writing application                      : mkvmerge v79.0 ('Funeral Pyres') 64-bit
Writing library                          : libebml v1.4.4 + libmatroska v1.7.1

Video
ID                                       : 1
Format                                   : AVC
Format/Info                              : Advanced Video Codec
Format profile                           : High@L4
Format settings                          : CABAC / 4 Ref Frames
Format settings, CABAC                   : Yes
Format settings, Reference frames        : 4 frames
Codec ID                                 : V_MPEG4/ISO/AVC
Duration                                 : 1 h 2 min
Bit rate mode                            : Constant
Bit rate                                 : 7 539 kb/s
Nominal bit rate                         : 10 000 kb/s
Width                                    : 1 920 pixels
Height                                   : 1 080 pixels
Display aspect ratio                     : 16:9
Frame rate mode                          : Constant
Frame rate                               : 23.976 (24000/1001) FPS
Color space                              : YUV
Chroma subsampling                       : 4:2:0
Bit depth                                : 8 bits
Scan type                                : Progressive
Bits/(Pixel*Frame)                       : 0.152
Stream size                              : 3.32 GiB (92%)
Default                                  : Yes
Forced                                   : No
Color range                              : Limited
Color primaries                          : BT.709
Transfer characteristics                 : BT.709
Matrix coefficients                      : BT.709

Audio
ID                                       : 2
Format                                   : E-AC-3
Format/Info                              : Enhanced AC-3
Commercial name                          : Dolby Digital Plus
Codec ID                                 : A_EAC3
Duration                                 : 1 h 2 min
Bit rate mode                            : Constant
Bit rate                                 : 640 kb/s
Channel(s)                               : 6 channels
Channel layout                           : L R C LFE Ls Rs
Sampling rate                            : 48.0 kHz
Frame rate                               : 31.250 FPS (1536 SPF)
Compression mode                         : Lossy
Stream size                              : 288 MiB (8%)
Language                                 : English (US)
Service kind                             : Complete Main
Default                                  : Yes
Forced                                   : No

Text #1
ID                                       : 3
Format                                   : UTF-8
Codec ID                                 : S_TEXT/UTF8
Codec ID/Info                            : UTF-8 Plain Text
Duration                                 : 1 h 2 min
Bit rate                                 : 64 b/s
Frame rate                               : 0.279 FPS
Count of elements                        : 1042
Stream size                              : 29.5 KiB (0%)
Language                                 : English (US)
Default                                  : No
Forced                                   : No

Text #2
ID                                       : 4
Format                                   : UTF-8
Codec ID                                 : S_TEXT/UTF8
Codec ID/Info                            : UTF-8 Plain Text
Duration                                 : 1 h 2 min
Bit rate                                 : 70 b/s
Frame rate                               : 0.308 FPS
Count of elements                        : 1151
Stream size                              : 32.2 KiB (0%)
Title                                    : SDH
Language                                 : English (US)
Default                                  : No
Forced                                   : No



Download
File Container: MKV
Video/Audio Codec: H264 (HIGH) EAC3
Video Resolution: 1920x1080
Please Login to post a comment.
If you don't have any account, please Register.
  • Subscribe my Feeds
  • Facebook
Encoding Queue:  x264  x265

Latest Episodes

Popular Movies and TV Shows

  • WWE NXT
  • Evil
  • The Boys
  • Brats
  • In the Line of Fire
  • The Braid
  • Walker
  • Colin from Accounts
  • Criminal Minds
  • The Artifice Girl
  • Origin
  • Coldplay Live in São Paulo
  • The Acolyte
  • Presumed Innocent
  • Dark Matter
  • The Primevals
  • Mysteries of the Terracotta Warriors
  • Camille 2000
  • The Big Door Prize
  • The Bold and the Beautiful
  • Trying
  • Lost Soulz
  • How Music Got Free
  • The Beast in the Jungle
  • The Daily Show

Recent Comments

  • Diggety247:

    BrokenHanded, Try using a DL manager.

  • BrokenHanded: clicknupload does not seem to work for past few days. keep getting an error saying the site is sendi...
  • Bud: Helps if you actually add these to the "Late Night with Seth Meyers" page too...
  • rambaldi70:

    Hy! Right now, my download speed : 1 Mb/s
    this is ok?
    Tx answer

  • Cinque_Persson: At 183 MB this had to be something completely different. In fact it's just the main actors commentin...
  • meyat74:

    my bad, should be full season

  • Oscar2:

    Halo "is" a good show

  • MeH:

    "one of the most impressive scenes"

Archives