Sign Up   |   Sign In  
EvilWalkerWWE NXTThis Is SparklehorseMelody TimeMoviePass, MovieCrashReginald the VampireMacGyverLaw & Order: Organized CrimeBoys on Film 21: Beautiful SecretThe Fall GuyAutoeroticFuriosa: A Mad Max SagaDark MatterMasterChef AustraliaUnder the BridgeThe Feeling That the Time for Doing Something Has PassedNevada SmithThe Big Door PrizeWWE RawLootYour Mother's SonMahal ko ang mahal moCivil WarThe Daily Show

Announcements

05/15

2024

No

Comments

Harry Wild S01E04 1080p WEB-DL x264-NGP
[RR/NF/CU]
Size: 1.7GB mkv H264 (CONSTRAINED BASELINE) / AAC (LC)  HD  1920x1080

Harry Wild
File Information
[img]http://lookpic.com/cdn/i2/t/0515202419052078-1.jpg[/img]
[img]http://lookpic.com/cdn/i2/t/0515202419052078-2.jpg[/img]
[img]http://lookpic.com/cdn/i2/t/0515202419052078-3.jpg[/img]

General
Unique ID                                : 34306007196777737943230584171968506982 (0x19CF18BE44AF2F62523C18DBB9FEAC66)
Complete name                            : Harry Wild S01E04 1080p WEB-DL x264-NGP.mkv
Format                                   : Matroska
Format version                           : Version 4
File size                                : 1.65 GiB
Duration                                 : 48 min 52 s
Overall bit rate                         : 4 835 kb/s
Frame rate                               : 25.000 FPS
Encoded date                             : 2022-04-11 17:08:28 UTC
Writing application                      : mkvmerge v38.0.0 ('The Silent Type') 64-bit
Writing library                          : libebml v1.3.9 + libmatroska v1.5.2

Video
ID                                       : 1
Format                                   : AVC
Format/Info                              : Advanced Video Codec
Format profile                           : Constrained Baseline@L4
Format settings                          : 1 Ref Frames
Format settings, CABAC                   : No
Format settings, Reference frames        : 1 frame
Codec ID                                 : V_MPEG4/ISO/AVC
Duration                                 : 48 min 52 s
Bit rate                                 : 4 704 kb/s
Width                                    : 1 920 pixels
Height                                   : 1 080 pixels
Display aspect ratio                     : 16:9
Frame rate mode                          : Constant
Frame rate                               : 25.000 FPS
Color space                              : YUV
Chroma subsampling                       : 4:2:0
Bit depth                                : 8 bits
Scan type                                : Progressive
Bits/(Pixel*Frame)                       : 0.091
Stream size                              : 1.61 GiB (97%)
Default                                  : Yes
Forced                                   : No

Audio
ID                                       : 2
Format                                   : AAC LC
Format/Info                              : Advanced Audio Codec Low Complexity
Codec ID                                 : A_AAC-2
Duration                                 : 48 min 52 s
Bit rate                                 : 128 kb/s
Channel(s)                               : 2 channels
Channel layout                           : L R
Sampling rate                            : 48.0 kHz
Frame rate                               : 46.875 FPS (1024 SPF)
Compression mode                         : Lossy
Stream size                              : 44.7 MiB (3%)
Language                                 : English
Default                                  : Yes
Forced                                   : No

Text
ID                                       : 3
Format                                   : UTF-8
Codec ID                                 : S_TEXT/UTF8
Codec ID/Info                            : UTF-8 Plain Text
Duration                                 : 47 min 35 s
Bit rate                                 : 68 b/s
Frame rate                               : 0.289 FPS
Count of elements                        : 825
Stream size                              : 24.0 KiB (0%)
Language                                 : English
Default                                  : Yes
Forced                                   : No



Download
File Container: MKV
Video/Audio Codec: H264 (CONSTRAINED BASELINE) AAC (LC)
Video Resolution: 1920x1080
Please Login to post a comment.
If you don't have any account, please Register.
  • Subscribe my Feeds
  • Facebook
Encoding Queue:  x264  x265

Latest Episodes

Popular Movies and TV Shows

  • Evil
  • Walker
  • WWE NXT
  • This Is Sparklehorse
  • Melody Time
  • MoviePass, MovieCrash
  • Reginald the Vampire
  • MacGyver
  • Law & Order: Organized Crime
  • Boys on Film 21: Beautiful Secret
  • The Fall Guy
  • Autoerotic
  • Furiosa: A Mad Max Saga
  • Dark Matter
  • MasterChef Australia
  • Under the Bridge
  • The Feeling That the Time for Doing Something Has Passed
  • Nevada Smith
  • The Big Door Prize
  • WWE Raw
  • Loot
  • Your Mother's Son
  • Mahal ko ang mahal mo
  • Civil War
  • The Daily Show

Recent Comments

  • dma: @admin It appears that ClickNupload is no longer usable for free users. Don't know about paying use...
  • Bionicone: Yea this is not the Bluray version. This is another Cam. This thing should be taken down. Do not dow...
  • spiderspinner: Bud:The same thing started happening to me last night and I've used four different browsers yet they...
  • timt:

    Junk, CAM

  • upx:

    WARNING:This is NOT a BluRay rip. It's a CAMrip.

  • Bud: Is clicknupload borked for anyone else now, or is it just me? In recent months it's only worked in...
  • mentalityx:

    Rad bloke!

  • waanaabe: I hope someone follows through with the rest! also, did not check every post but hoping future ones ...
  • Demonz:

    Holy popups ClickNupload

  • rambaldi70:

    this release sort cut! 1h33m12 !
    imdb - 1h 54m

  • rambaldi70: This release the first bad source 1h33m12 - stop the play this release sort cut! 1h33m12 ! imdb - 1h...
  • rambaldi70:

    this release sort cut! 1h33m12 !
    imdb - 1h 54m

  • dilliboy: Will we ever see these RMTeam releases ever again? I hope they're not lost to the digital graveyard ...
  • kang:

    NitroFlare's link is missing...

  • kang:

    NitroFlare's link is missing...

  • tchamast:

    @Wrapt

    I've seen that too, don't know why.

  • Rafi85: Hi thx for the 14th season. Is it possible to reupload some episodes plz they were removed. These ar...
  • KubrickFan:

    Any possibility of a fresh link for this?

  • GubeShitemon: This is a different movie to the artwork version. Not the Dylan McDermott film but the Ben Affleck f...
  • drorsabi1:

    @admin
    Please add "My Adventures With Superman Season 2 "

Archives