Sign Up   |   Sign In  
Star Trek: DiscoveryEvilColin from AccountsMoviePass, MovieCrashThis Is SparklehorseButterfly in the SkyWalkerWWE NXTMysterious DisappearancesThe Feeling That the Time for Doing Something Has PassedThe Fall GuyKakeguruiFuriosa: A Mad Max SagaDark MatterMasterChef AustraliaUnder the BridgeAutoerotic12 StrongThe Big Door PrizeWWE RawMacGyverYour Mother's SonCivil WarMahal ko ang mahal moThe Daily Show

Announcements

05/15

2024

No

Comments

Harry Wild S01E07 1080p WEB-DL x264-NGP
[RR/NF/CU]
Size: 1.8GB mkv H264 (CONSTRAINED BASELINE) / AAC (LC)  HD  1920x1080

Harry Wild
File Information
[img]http://lookpic.com/cdn/i2/t/0515202419061115-1.jpg[/img]
[img]http://lookpic.com/cdn/i2/t/0515202419061115-2.jpg[/img]
[img]http://lookpic.com/cdn/i2/t/0515202419061115-3.jpg[/img]

General
Unique ID                                : 310540952404419045480348531195380907330 (0xE9A0030D26AFF55A0F67868B2E723D42)
Complete name                            : Harry Wild S01E07 1080p WEB-DL x264-NGP.mkv
Format                                   : Matroska
Format version                           : Version 4
File size                                : 1.81 GiB
Duration                                 : 48 min 26 s
Overall bit rate                         : 5 337 kb/s
Frame rate                               : 25.000 FPS
Encoded date                             : 2022-04-26 17:34:16 UTC
Writing application                      : mkvmerge v38.0.0 ('The Silent Type') 64-bit
Writing library                          : libebml v1.3.9 + libmatroska v1.5.2

Video
ID                                       : 1
Format                                   : AVC
Format/Info                              : Advanced Video Codec
Format profile                           : Constrained Baseline@L4
Format settings                          : 1 Ref Frames
Format settings, CABAC                   : No
Format settings, Reference frames        : 1 frame
Codec ID                                 : V_MPEG4/ISO/AVC
Duration                                 : 48 min 26 s
Bit rate                                 : 5 206 kb/s
Width                                    : 1 920 pixels
Height                                   : 1 080 pixels
Display aspect ratio                     : 16:9
Frame rate mode                          : Constant
Frame rate                               : 25.000 FPS
Color space                              : YUV
Chroma subsampling                       : 4:2:0
Bit depth                                : 8 bits
Scan type                                : Progressive
Bits/(Pixel*Frame)                       : 0.100
Stream size                              : 1.76 GiB (98%)
Default                                  : Yes
Forced                                   : No

Audio
ID                                       : 2
Format                                   : AAC LC
Format/Info                              : Advanced Audio Codec Low Complexity
Codec ID                                 : A_AAC-2
Duration                                 : 48 min 26 s
Bit rate                                 : 128 kb/s
Channel(s)                               : 2 channels
Channel layout                           : L R
Sampling rate                            : 48.0 kHz
Frame rate                               : 46.875 FPS (1024 SPF)
Compression mode                         : Lossy
Stream size                              : 44.4 MiB (2%)
Language                                 : English
Default                                  : Yes
Forced                                   : No

Text
ID                                       : 3
Format                                   : UTF-8
Codec ID                                 : S_TEXT/UTF8
Codec ID/Info                            : UTF-8 Plain Text
Duration                                 : 46 min 54 s
Bit rate                                 : 82 b/s
Frame rate                               : 0.331 FPS
Count of elements                        : 933
Stream size                              : 28.2 KiB (0%)
Language                                 : English
Default                                  : Yes
Forced                                   : No



Download
File Container: MKV
Video/Audio Codec: H264 (CONSTRAINED BASELINE) AAC (LC)
Video Resolution: 1920x1080
Please Login to post a comment.
If you don't have any account, please Register.
  • Subscribe my Feeds
  • Facebook
Encoding Queue:  x264  x265

Latest Episodes

Popular Movies and TV Shows

  • Star Trek: Discovery
  • Evil
  • Colin from Accounts
  • MoviePass, MovieCrash
  • This Is Sparklehorse
  • Butterfly in the Sky
  • Walker
  • WWE NXT
  • Mysterious Disappearances
  • The Feeling That the Time for Doing Something Has Passed
  • The Fall Guy
  • Kakegurui
  • Furiosa: A Mad Max Saga
  • Dark Matter
  • MasterChef Australia
  • Under the Bridge
  • Autoerotic
  • 12 Strong
  • The Big Door Prize
  • WWE Raw
  • MacGyver
  • Your Mother's Son
  • Civil War
  • Mahal ko ang mahal mo
  • The Daily Show

Recent Comments

  • dma: @admin It appears that ClickNupload is no longer usable for free users. Don't know about paying use...
  • Bionicone: Yea this is not the Bluray version. This is another Cam. This thing should be taken down. Do not dow...
  • spiderspinner: Bud:The same thing started happening to me last night and I've used four different browsers yet they...
  • timt:

    Junk, CAM

  • upx:

    WARNING:This is NOT a BluRay rip. It's a CAMrip.

  • Bud: Is clicknupload borked for anyone else now, or is it just me? In recent months it's only worked in...
  • mentalityx:

    Rad bloke!

  • waanaabe: I hope someone follows through with the rest! also, did not check every post but hoping future ones ...
  • Demonz:

    Holy popups ClickNupload

  • rambaldi70:

    this release sort cut! 1h33m12 !
    imdb - 1h 54m

  • rambaldi70: This release the first bad source 1h33m12 - stop the play this release sort cut! 1h33m12 ! imdb - 1h...
  • rambaldi70:

    this release sort cut! 1h33m12 !
    imdb - 1h 54m

  • dilliboy: Will we ever see these RMTeam releases ever again? I hope they're not lost to the digital graveyard ...
  • kang:

    NitroFlare's link is missing...

  • kang:

    NitroFlare's link is missing...

  • tchamast:

    @Wrapt

    I've seen that too, don't know why.

  • Rafi85: Hi thx for the 14th season. Is it possible to reupload some episodes plz they were removed. These ar...
  • KubrickFan:

    Any possibility of a fresh link for this?

  • GubeShitemon: This is a different movie to the artwork version. Not the Dylan McDermott film but the Ben Affleck f...
  • drorsabi1:

    @admin
    Please add "My Adventures With Superman Season 2 "

Archives