Sign Up   |   Sign In  
WalkerWWE NXTReginald the VampireColdplay Live in São PauloPulp FictionThe Bold and the BeautifulInside No. 9The Artifice GirlOriginThe Young and the RestlessThe PrimevalsThe AcolytePresumed InnocentDark MatterMysteries of the Terracotta WarriorsNinja TerminatorCamille 2000The Big Door PrizeTryingAcapulcoHow Music Got FreeLost SoulzPet SemataryThe Daily ShowWWE Smackdown!

Announcements

06/08

2024

No

Comments

Harry Wild S03E04 720p WEB x264-NGP
[RR/NF/CU]
Size: 1.1GB mp4 H264 (HIGH) (AVC1) / EAC3 (EC-3)  HD  1280x640

Harry Wild
File Information
[img]http://lookpic.com/cdn/i2/t/0608202421010674-1.jpg[/img]
[img]http://lookpic.com/cdn/i2/t/0608202421010674-2.jpg[/img]
[img]http://lookpic.com/cdn/i2/t/0608202421010674-3.jpg[/img]

General
Complete name                            : Harry Wild S03E04 720p WEB x264-NGP.mp4
Format                                   : MPEG-4
Format profile                           : Base Media / Version 2
Codec ID                                 : mp42 (mp42/dby1/iso2/avc1/mp41)
File size                                : 1.09 GiB
Duration                                 : 48 min 55 s
Overall bit rate                         : 3 183 kb/s
Frame rate                               : 25.000 FPS
Encoded date                             : 2024-06-08 16:12:02 UTC
Tagged date                              : 2024-06-08 16:12:02 UTC
Writing application                      : HandBrake 1.7.3 2024021000

Video
ID                                       : 1
Format                                   : AVC
Format/Info                              : Advanced Video Codec
Format profile                           : [email protected]
Format settings                          : CABAC / 4 Ref Frames
Format settings, CABAC                   : Yes
Format settings, Reference frames        : 4 frames
Codec ID                                 : avc1
Codec ID/Info                            : Advanced Video Coding
Duration                                 : 48 min 55 s
Bit rate                                 : 2 537 kb/s
Width                                    : 1 280 pixels
Height                                   : 640 pixels
Display aspect ratio                     : 2.000
Frame rate mode                          : Constant
Frame rate                               : 25.000 FPS
Color space                              : YUV
Chroma subsampling                       : 4:2:0
Bit depth                                : 8 bits
Scan type                                : Progressive
Bits/(Pixel*Frame)                       : 0.124
Stream size                              : 888 MiB (80%)
Writing library                          : x264 core 164 r3107 a8b68ebf
 Encoding settings                        : cabac=1 / ref=1 / deblock=1:0:0 / analyse=0x3:0x113 / me=hex / subme=2 / psy=1 / psy_rd=1.00:0.00 / mixed_ref=0 / me_range=16 / chroma_me=1 / trellis=0 / 8x8dct=1 / cqm=0 / deadz / fast pskip=1 / chroma_qp_offset=0 / threads=6 / lookahead_threads=2 / sliced_threads=0 / nr=0 / decimate=1 / interlaced=0 / bluray_compat=0 / c / bframes=3 / b_pyramid=2 / b_adapt=1 / b_bias=0 / direct=1 / weightb=1 / open_gop=0 / weightp=1 / keyint=250 / keyint_min=25 / scenecut=40 / intra_refresh=0 / rc_lookahead=10 / rc=crf / mbtree=1 / crf=16.0 / qcomp=0.60 / qpmin=0 / qpmax=69 / qpstep=4 / ip_ratio=1.40 / aq=1:1.00
Encoded date                             : 2024-06-08 16:12:02 UTC
Tagged date                              : 2024-06-08 16:12:02 UTC
Color range                              : Limited
Color primaries                          : BT.709
Transfer characteristics                 : BT.709
Matrix coefficients                      : BT.709
Codec configuration box                  : avcC

Audio
ID                                       : 2
Format                                   : E-AC-3
Format/Info                              : Enhanced AC-3
Commercial name                          : Dolby Digital Plus
Codec ID                                 : ec-3
Duration                                 : 48 min 55 s
Bit rate mode                            : Constant
Bit rate                                 : 640 kb/s
Channel(s)                               : 6 channels
Channel layout                           : L R C LFE Ls Rs
Sampling rate                            : 48.0 kHz
Frame rate                               : 31.250 FPS (1536 SPF)
Compression mode                         : Lossy
Stream size                              : 224 MiB (20%)
Title                                    : Surround / Surround
Language                                 : English
Service kind                             : Complete Main
Default                                  : Yes
Alternate group                          : 1
Encoded date                             : 2024-06-08 16:12:02 UTC
Tagged date                              : 2024-06-08 16:12:02 UTC



Download
File Container: MP4
Video/Audio Codec: H264 (HIGH) (AVC1) EAC3 (EC-3)
Video Resolution: 1280x640
Please Login to post a comment.
If you don't have any account, please Register.
  • Subscribe my Feeds
  • Facebook
Encoding Queue:  x264  x265

Latest Episodes

Popular Movies and TV Shows

  • Walker
  • WWE NXT
  • Reginald the Vampire
  • Coldplay Live in São Paulo
  • Pulp Fiction
  • The Bold and the Beautiful
  • Inside No. 9
  • The Artifice Girl
  • Origin
  • The Young and the Restless
  • The Primevals
  • The Acolyte
  • Presumed Innocent
  • Dark Matter
  • Mysteries of the Terracotta Warriors
  • Ninja Terminator
  • Camille 2000
  • The Big Door Prize
  • Trying
  • Acapulco
  • How Music Got Free
  • Lost Soulz
  • Pet Sematary
  • The Daily Show
  • WWE Smackdown!

Recent Comments

  • KissclTum: [url=https://kisstom.ru/prices]имплант с коронкой цена кисс [/url] Tegs: и...
  • Diggety247:

    BrokenHanded, Try using a DL manager.

  • BrokenHanded: clicknupload does not seem to work for past few days. keep getting an error saying the site is sendi...
  • Bud: Helps if you actually add these to the "Late Night with Seth Meyers" page too...
  • rambaldi70:

    Hy! Right now, my download speed : 1 Mb/s
    this is ok?
    Tx answer

  • Cinque_Persson: At 183 MB this had to be something completely different. In fact it's just the main actors commentin...
  • meyat74:

    my bad, should be full season

  • Oscar2:

    Halo "is" a good show

  • MeH:

    "one of the most impressive scenes"

  • rappet:

    Unfortunately, episode 2 not playing and episode 3 half missing (only 37 minutes long).

  • Anovani:

    Nice 1

  • shark:

    Will there be a sequel?

  • sjors:

    This release in in Russian with Russian subs. No English.

  • RapidRabbit98: I'll ask again Forged in Fire Series 11 episode 1 - anyone have it?

Archives