Sign Up   |   Sign In  
WalkerWWE NXTReginald the VampireColdplay Live in São PauloPulp FictionThe Bold and the BeautifulInside No. 9The Artifice GirlOriginThe Young and the RestlessThe PrimevalsThe AcolytePresumed InnocentDark MatterMysteries of the Terracotta WarriorsNinja TerminatorCamille 2000The Big Door PrizeTryingAcapulcoHow Music Got FreeLost SoulzPet SemataryThe Daily ShowWWE Smackdown!

Announcements

06/09

2024

1

Comments

Mayor of Kingstown S03E02 Guts 720p AMZN WEB-DL DDP5 1 H 264-NTb
[RR/NF/CU]
Size: 1.3GB mkv H264 (HIGH) / EAC3  HD  1280x640

Mayor of Kingstown
File Information
[img]http://lookpic.com/cdn/i2/t/0609202417311789-1.jpg[/img]
[img]http://lookpic.com/cdn/i2/t/0609202417311789-2.jpg[/img]
[img]http://lookpic.com/cdn/i2/t/0609202417311789-3.jpg[/img]

General
Unique ID                                : 266345991880322624557673447596677135369 (0xC8605F441B71010235803161035BFC09)
Complete name                            : Mayor.of.Kingstown.S03E02.Guts.720p.AMZN.WEB-DL.DDP5.1.H.264-NTb.mkv
Format                                   : Matroska
Format version                           : Version 4
File size                                : 1.25 GiB
Duration                                 : 42 min 37 s
Overall bit rate                         : 4 212 kb/s
Frame rate                               : 23.976 FPS
Writing application                      : mkvmerge v79.0 ('Funeral Pyres') 64-bit
Writing library                          : libebml v1.4.4 + libmatroska v1.7.1

Video
ID                                       : 1
Format                                   : AVC
Format/Info                              : Advanced Video Codec
Format profile                           : [email protected]
Format settings                          : CABAC / 4 Ref Frames
Format settings, CABAC                   : Yes
Format settings, Reference frames        : 4 frames
Codec ID                                 : V_MPEG4/ISO/AVC
Duration                                 : 42 min 37 s
Bit rate mode                            : Constant
Bit rate                                 : 3 569 kb/s
Nominal bit rate                         : 4 000 kb/s
Width                                    : 1 280 pixels
Height                                   : 640 pixels
Display aspect ratio                     : 2.000
Frame rate mode                          : Constant
Frame rate                               : 23.976 (24000/1001) FPS
Color space                              : YUV
Chroma subsampling                       : 4:2:0
Bit depth                                : 8 bits
Scan type                                : Progressive
Bits/(Pixel*Frame)                       : 0.182
Stream size                              : 1.06 GiB (85%)
Default                                  : Yes
Forced                                   : No
Color range                              : Limited
Color primaries                          : BT.709
Transfer characteristics                 : BT.709
Matrix coefficients                      : BT.709

Audio
ID                                       : 2
Format                                   : E-AC-3
Format/Info                              : Enhanced AC-3
Commercial name                          : Dolby Digital Plus
Codec ID                                 : A_EAC3
Duration                                 : 42 min 37 s
Bit rate mode                            : Constant
Bit rate                                 : 640 kb/s
Channel(s)                               : 6 channels
Channel layout                           : L R C LFE Ls Rs
Sampling rate                            : 48.0 kHz
Frame rate                               : 31.250 FPS (1536 SPF)
Compression mode                         : Lossy
Stream size                              : 195 MiB (15%)
Language                                 : English (US)
Service kind                             : Complete Main
Default                                  : Yes
Forced                                   : No

Text #1
ID                                       : 3
Format                                   : UTF-8
Codec ID                                 : S_TEXT/UTF8
Codec ID/Info                            : UTF-8 Plain Text
Duration                                 : 42 min 7 s
Bit rate                                 : 67 b/s
Frame rate                               : 0.298 FPS
Count of elements                        : 753
Stream size                              : 20.8 KiB (0%)
Language                                 : English (US)
Default                                  : No
Forced                                   : No

Text #2
ID                                       : 4
Format                                   : UTF-8
Codec ID                                 : S_TEXT/UTF8
Codec ID/Info                            : UTF-8 Plain Text
Duration                                 : 42 min 7 s
Bit rate                                 : 73 b/s
Frame rate                               : 0.327 FPS
Count of elements                        : 826
Stream size                              : 22.7 KiB (0%)
Title                                    : SDH
Language                                 : English (US)
Default                                  : No
Forced                                   : No



Download
File Container: MKV
Video/Audio Codec: H264 (HIGH) EAC3
Video Resolution: 1280x640

1 Response to "[RR/NF/CU] Mayor of Kingstown S03E02 Guts 720p AMZN WEB-DL DDP5 1 H 264-NTb (1.3GB)"
06/09/24
18:36:26
ReadyPlayerOne

Thank You

Please Login to post a comment.
If you don't have any account, please Register.
  • Subscribe my Feeds
  • Facebook
Encoding Queue:  x264  x265

Latest Episodes

Popular Movies and TV Shows

  • Walker
  • WWE NXT
  • Reginald the Vampire
  • Coldplay Live in São Paulo
  • Pulp Fiction
  • The Bold and the Beautiful
  • Inside No. 9
  • The Artifice Girl
  • Origin
  • The Young and the Restless
  • The Primevals
  • The Acolyte
  • Presumed Innocent
  • Dark Matter
  • Mysteries of the Terracotta Warriors
  • Ninja Terminator
  • Camille 2000
  • The Big Door Prize
  • Trying
  • Acapulco
  • How Music Got Free
  • Lost Soulz
  • Pet Sematary
  • The Daily Show
  • WWE Smackdown!

Recent Comments

  • KissclTum: [url=https://kisstom.ru/prices]имплант с коронкой цена кисс [/url] Tegs: и...
  • Diggety247:

    BrokenHanded, Try using a DL manager.

  • BrokenHanded: clicknupload does not seem to work for past few days. keep getting an error saying the site is sendi...
  • Bud: Helps if you actually add these to the "Late Night with Seth Meyers" page too...
  • rambaldi70:

    Hy! Right now, my download speed : 1 Mb/s
    this is ok?
    Tx answer

  • Cinque_Persson: At 183 MB this had to be something completely different. In fact it's just the main actors commentin...
  • meyat74:

    my bad, should be full season

  • Oscar2:

    Halo "is" a good show

  • MeH:

    "one of the most impressive scenes"

  • rappet:

    Unfortunately, episode 2 not playing and episode 3 half missing (only 37 minutes long).

  • Anovani:

    Nice 1

  • shark:

    Will there be a sequel?

  • sjors:

    This release in in Russian with Russian subs. No English.

  • RapidRabbit98: I'll ask again Forged in Fire Series 11 episode 1 - anyone have it?

Archives