Sign Up   |   Sign In  
The Bold and the BeautifulWalkerColdplay Live in São PauloInside No. 9Pulp FictionDeath GamesThe Artifice GirlOriginThe PrimevalsFiennes Return to the WildThe Young and the RestlessThe ChosenThe AcolyteDark MatterPresumed InnocentMysteries of the Terracotta WarriorsNinja TerminatorHow Music Got FreeWWE NXTThe Big Door PrizeTryingLost SoulzThe Beast in the JunglePet SemataryThe Daily Show

Announcements

06/09

2024

No

Comments

My Adventures with Superman S02E04 Two Lanes Diverged 1080p Hybrid MAX WEB-DL DDP5 1 x264-NTb
[RR/NF/CU]
Size: 400MB mkv H264 (HIGH) / EAC3  HD  1920x1080

My Adventures with Superman
File Information
[img]http://lookpic.com/cdn/i2/t/0609202417253062-1.jpg[/img]
[img]http://lookpic.com/cdn/i2/t/0609202417253062-2.jpg[/img]
[img]http://lookpic.com/cdn/i2/t/0609202417253062-3.jpg[/img]

General
Unique ID                                : 47403620833227020562878526979112344972 (0x23A99AF3DC2C30E64B8986628C9E9D8C)
Complete name                            : My Adventures with Superman S02E04 Two Lanes Diverged 1080p Hybrid MAX WEB-DL DDP5 1 x264-NTb.mkv
Format                                   : Matroska
Format version                           : Version 4
File size                                : 400 MiB
Duration                                 : 22 min 28 s
Overall bit rate mode                    : Variable
Overall bit rate                         : 2 490 kb/s
Frame rate                               : 23.976 FPS
Writing application                      : mkvmerge v81.0 ('Milliontown') 64-bit
Writing library                          : libebml v1.4.5 + libmatroska v1.7.1

Video
ID                                       : 1
Format                                   : AVC
Format/Info                              : Advanced Video Codec
Format profile                           : [email protected]
Format settings                          : CABAC / 4 Ref Frames
Format settings, CABAC                   : Yes
Format settings, Reference frames        : 4 frames
Codec ID                                 : V_MPEG4/ISO/AVC
Duration                                 : 22 min 28 s
Bit rate mode                            : Variable
Bit rate                                 : 1 848 kb/s
Maximum bit rate                         : 10 000 kb/s
Width                                    : 1 920 pixels
Height                                   : 1 080 pixels
Display aspect ratio                     : 16:9
Frame rate mode                          : Constant
Frame rate                               : 23.976 (24000/1001) FPS
Color space                              : YUV
Chroma subsampling                       : 4:2:0
Bit depth                                : 8 bits
Scan type                                : Progressive
Bits/(Pixel*Frame)                       : 0.037
Stream size                              : 297 MiB (74%)
Writing library                          : x264 core 164
 Encoding settings                        : cabac=1 / ref=4 / deblock=1:0:0 / analyse=0x3:0x133 / me=umh / subme=10 / psy=1 / psy_rd=1.00:0.00 / mixed_ref=1 / me_range=24 / chroma_me=1 / trellis=2 / 8x8dct=1 / cqm=0 / deadz / fast pskip=1 / chroma_qp_offset=-2 / threads=24 / lookahead_threads=2 / sliced_threads=0 / nr=0 / decimate=1 / interlaced=0 / bluray_compat=0 / stitchable=1 / c / bframes=3 / b_pyramid=2 / b_adapt=2 / b_bias=0 / direct=3 / weightb=1 / open_gop=0 / weightp=2 / keyint=96 / keyint_min=49 / scenecut=0 / intra_refresh=0 / rc_lookahead=96 / rc=crf / mbtree=1 / crf=20.0 / qcomp=0.60 / qpmin=0 / qpmax=69 / qpstep=4 / vbv_maxrate=10000 / vbv_bufsize=40000 / crf_max=0.0 / nal_hrd=vbr / filler=0 / ip_ratio=1.40 / aq=1:1.00
Default                                  : Yes
Forced                                   : No
Color range                              : Limited
Color primaries                          : BT.709
Transfer characteristics                 : BT.709
Matrix coefficients                      : BT.709

Audio
ID                                       : 2
Format                                   : E-AC-3
Format/Info                              : Enhanced AC-3
Commercial name                          : Dolby Digital Plus
Codec ID                                 : A_EAC3
Duration                                 : 22 min 28 s
Bit rate mode                            : Constant
Bit rate                                 : 640 kb/s
Channel(s)                               : 6 channels
Channel layout                           : L R C LFE Ls Rs
Sampling rate                            : 48.0 kHz
Frame rate                               : 31.250 FPS (1536 SPF)
Compression mode                         : Lossy
Stream size                              : 103 MiB (26%)
Language                                 : English
Service kind                             : Complete Main
Default                                  : Yes
Forced                                   : No

Text #1
ID                                       : 3
Format                                   : UTF-8
Codec ID                                 : S_TEXT/UTF8
Codec ID/Info                            : UTF-8 Plain Text
Duration                                 : 21 min 44 s
Bit rate                                 : 64 b/s
Frame rate                               : 0.281 FPS
Count of elements                        : 367
Stream size                              : 10.2 KiB (0%)
Language                                 : English (US)
Default                                  : No
Forced                                   : No

Text #2
ID                                       : 4
Format                                   : UTF-8
Codec ID                                 : S_TEXT/UTF8
Codec ID/Info                            : UTF-8 Plain Text
Duration                                 : 21 min 44 s
Bit rate                                 : 71 b/s
Frame rate                               : 0.307 FPS
Count of elements                        : 400
Stream size                              : 11.4 KiB (0%)
Title                                    : SDH
Language                                 : English (US)
Default                                  : No
Forced                                   : No

Text #3
ID                                       : 5
Format                                   : UTF-8
Codec ID                                 : S_TEXT/UTF8
Codec ID/Info                            : UTF-8 Plain Text
Duration                                 : 21 min 44 s
Bit rate                                 : 68 b/s
Frame rate                               : 0.252 FPS
Count of elements                        : 329
Stream size                              : 10.8 KiB (0%)
Language                                 : Spanish (Latin America)
Default                                  : No
Forced                                   : No

Text #4
ID                                       : 6
Format                                   : UTF-8
Codec ID                                 : S_TEXT/UTF8
Codec ID/Info                            : UTF-8 Plain Text
Duration                                 : 21 min 45 s
Bit rate                                 : 66 b/s
Frame rate                               : 0.244 FPS
Count of elements                        : 319
Stream size                              : 10.5 KiB (0%)
Language                                 : Portuguese (BR)
Default                                  : No
Forced                                   : No

Menu
00:00:00.000                             : Chapter 1
00:01:29.547                             : Intro
00:01:50.945                             : Chapter 2
00:08:36.849                             : Chapter 3
00:18:16.553                             : Chapter 4
00:21:58.525                             : Credits



Download
File Container: MKV
Video/Audio Codec: H264 (HIGH) EAC3
Video Resolution: 1920x1080
Please Login to post a comment.
If you don't have any account, please Register.
  • Subscribe my Feeds
  • Facebook
Encoding Queue:  x264  x265

Latest Episodes

Popular Movies and TV Shows

  • The Bold and the Beautiful
  • Walker
  • Coldplay Live in São Paulo
  • Inside No. 9
  • Pulp Fiction
  • Death Games
  • The Artifice Girl
  • Origin
  • The Primevals
  • Fiennes Return to the Wild
  • The Young and the Restless
  • The Chosen
  • The Acolyte
  • Dark Matter
  • Presumed Innocent
  • Mysteries of the Terracotta Warriors
  • Ninja Terminator
  • How Music Got Free
  • WWE NXT
  • The Big Door Prize
  • Trying
  • Lost Soulz
  • The Beast in the Jungle
  • Pet Sematary
  • The Daily Show

Recent Comments

  • KissclTum: [url=https://kisstom.ru/prices]имплант с коронкой цена кисс [/url] Tegs: и...
  • Diggety247:

    BrokenHanded, Try using a DL manager.

  • BrokenHanded: clicknupload does not seem to work for past few days. keep getting an error saying the site is sendi...
  • Bud: Helps if you actually add these to the "Late Night with Seth Meyers" page too...
  • rambaldi70:

    Hy! Right now, my download speed : 1 Mb/s
    this is ok?
    Tx answer

  • Cinque_Persson: At 183 MB this had to be something completely different. In fact it's just the main actors commentin...
  • meyat74:

    my bad, should be full season

  • Oscar2:

    Halo "is" a good show

  • MeH:

    "one of the most impressive scenes"

  • rappet:

    Unfortunately, episode 2 not playing and episode 3 half missing (only 37 minutes long).

  • Anovani:

    Nice 1

  • shark:

    Will there be a sequel?

  • sjors:

    This release in in Russian with Russian subs. No English.

  • RapidRabbit98: I'll ask again Forged in Fire Series 11 episode 1 - anyone have it?

Archives