Sign Up   |   Sign In  
Young SheldonTrackerTMZ Presents: The Downfall of DiddyBob's BurgersThe Name of the RoseImmaculateThe Green VeilDevil in the FleshBodkinThe Great NorthQueen of the GypsiesTales of Ordinary MadnessThe SimpsonsThe EqualizerCSI: VegasGolden KamuyBaby DriverChallengersThe SympathizerKrapopolisS.W.A.T.Triple FrontierA Walk Among the TombstonesDawn of the Planet of the ApesBeacon 23

Announcements

05/10

2024

1

Comments

So Help Me Todd S02E09 The Broker 1080p AMZN WEB-DL DDP5 1 H 264-NTb
[RR/NF]
Size: 2.4GB mkv H264 (HIGH) / EAC3  HD  1920x1080

So Help Me Todd
File Information
[img]http://lookpic.com/cdn/i2/t/0510202408222154-1.jpg[/img]
[img]http://lookpic.com/cdn/i2/t/0510202408222154-2.jpg[/img]
[img]http://lookpic.com/cdn/i2/t/0510202408222154-3.jpg[/img]

General
Unique ID                                : 144338094103244037385883337759430842575 (0x6C9681792791F461281D14014E1498CF)
Complete name                            : So.Help.Me.Todd.S02E09.The.Broker.1080p.AMZN.WEB-DL.DDP5.1.H.264-NTb.mkv
Format                                   : Matroska
Format version                           : Version 4
File size                                : 2.42 GiB
Duration                                 : 43 min 27 s
Overall bit rate                         : 7 969 kb/s
Frame rate                               : 23.976 FPS
Writing application                      : mkvmerge v81.0 ('Milliontown') 64-bit
Writing library                          : libebml v1.4.4 + libmatroska v1.7.1

Video
ID                                       : 1
Format                                   : AVC
Format/Info                              : Advanced Video Codec
Format profile                           : High@L4
Format settings                          : CABAC / 4 Ref Frames
Format settings, CABAC                   : Yes
Format settings, Reference frames        : 4 frames
Codec ID                                 : V_MPEG4/ISO/AVC
Duration                                 : 43 min 27 s
Bit rate mode                            : Constant
Bit rate                                 : 7 326 kb/s
Nominal bit rate                         : 10 000 kb/s
Width                                    : 1 920 pixels
Height                                   : 1 080 pixels
Display aspect ratio                     : 16:9
Frame rate mode                          : Constant
Frame rate                               : 23.976 (24000/1001) FPS
Color space                              : YUV
Chroma subsampling                       : 4:2:0
Bit depth                                : 8 bits
Scan type                                : Progressive
Bits/(Pixel*Frame)                       : 0.147
Stream size                              : 2.22 GiB (92%)
Default                                  : Yes
Forced                                   : No
Color range                              : Limited
Color primaries                          : BT.709
Transfer characteristics                 : BT.709
Matrix coefficients                      : BT.709

Audio
ID                                       : 2
Format                                   : E-AC-3
Format/Info                              : Enhanced AC-3
Commercial name                          : Dolby Digital Plus
Codec ID                                 : A_EAC3
Duration                                 : 43 min 27 s
Bit rate mode                            : Constant
Bit rate                                 : 640 kb/s
Channel(s)                               : 6 channels
Channel layout                           : L R C LFE Ls Rs
Sampling rate                            : 48.0 kHz
Frame rate                               : 31.250 FPS (1536 SPF)
Compression mode                         : Lossy
Stream size                              : 199 MiB (8%)
Language                                 : English (US)
Service kind                             : Complete Main
Default                                  : Yes
Forced                                   : No

Text #1
ID                                       : 3
Format                                   : UTF-8
Codec ID                                 : S_TEXT/UTF8
Codec ID/Info                            : UTF-8 Plain Text
Duration                                 : 43 min 8 s
Bit rate                                 : 105 b/s
Frame rate                               : 0.423 FPS
Count of elements                        : 1094
Stream size                              : 33.2 KiB (0%)
Language                                 : English (US)
Default                                  : No
Forced                                   : No

Text #2
ID                                       : 4
Format                                   : UTF-8
Codec ID                                 : S_TEXT/UTF8
Codec ID/Info                            : UTF-8 Plain Text
Duration                                 : 43 min 8 s
Bit rate                                 : 109 b/s
Frame rate                               : 0.437 FPS
Count of elements                        : 1132
Stream size                              : 34.5 KiB (0%)
Title                                    : SDH
Language                                 : English (US)
Default                                  : No
Forced                                   : No



Download
File Container: MKV
Video/Audio Codec: H264 (HIGH) EAC3
Video Resolution: 1920x1080

1 Response to "[RR/NF] So Help Me Todd S02E09 The Broker 1080p AMZN WEB-DL DDP5 1 H 264-NTb (2.4GB)"
05/10/24
09:31:21
ReadyPlayerOne

Thank You

Please Login to post a comment.
If you don't have any account, please Register.
  • Subscribe my Feeds
  • Facebook
Encoding Queue:  x264  x265

Latest Episodes

Popular Movies and TV Shows

  • Young Sheldon
  • Tracker
  • TMZ Presents: The Downfall of Diddy
  • Bob's Burgers
  • The Name of the Rose
  • Immaculate
  • The Green Veil
  • Devil in the Flesh
  • Bodkin
  • The Great North
  • Queen of the Gypsies
  • Tales of Ordinary Madness
  • The Simpsons
  • The Equalizer
  • CSI: Vegas
  • Golden Kamuy
  • Baby Driver
  • Challengers
  • The Sympathizer
  • Krapopolis
  • S.W.A.T.
  • Triple Frontier
  • A Walk Among the Tombstones
  • Dawn of the Planet of the Apes
  • Beacon 23

Recent Comments

  • Bud: Is the search engine down for everyone, or just me? It just says 'You're forbidden!' whenever I lo...
  • 23d1:

    not episode 4 it is episode 3

  • 23d1:

    not episode 4 it is episode 3

  • 23d1:

    not episode 4 it is episode 3

  • 23d1:

    not episode 4 it is episode 3

  • aaroz88:

    Trimas!!

  • mptoo: I don't often ask this, infact this would be the first time, but I don't suppose there is any chance...
  • Cinque_Persson:

    btw:
    quote /quote
    is broken

  • gabrielsyme:

    Sorry but where is the clicknupload link?

  • mike1204:

    Is this episode doomed??? The RMX avi version is only 12 minutes long!!!

  • waanaabe:

    Could PUSHING DAISES kindly be upoaded to CU? THANKS!

Archives