Sign Up   |   Sign In  
WalkerWWE NXTReginald the VampireColdplay Live in São PauloPulp FictionDeath GamesThe Bold and the BeautifulInside No. 9The Artifice GirlOriginThe PrimevalsThe Young and the RestlessThe AcolytePresumed InnocentDark MatterMysteries of the Terracotta WarriorsNinja TerminatorCamille 2000The Big Door PrizeTryingAcapulcoHow Music Got FreeLost SoulzThe Beast in the JungleThe Daily Show

Announcements

06/05

2024

1

Comments

The Acolyte S01E02 Revenge Justice 720p DSNP WEB-DL DDP5 1 H 264-NTb
[RR/NF/CU]
Size: 860MB mkv H264 (HIGH) / EAC3  HD  1280x720

The Acolyte
File Information
[img]http://lookpic.com/cdn/i2/t/0605202409173721-1.jpg[/img]
[img]http://lookpic.com/cdn/i2/t/0605202409173721-2.jpg[/img]
[img]http://lookpic.com/cdn/i2/t/0605202409173721-3.jpg[/img]

General
Unique ID                                : 288761938272309973668514431503835114854 (0xD93D86C04D48EE139F79C1246B6CAD66)
Complete name                            : The.Acolyte.S01E02.Revenge.Justice.720p.DSNP.WEB-DL.DDP5.1.H.264-NTb.mkv
Format                                   : Matroska
Format version                           : Version 4
File size                                : 860 MiB
Duration                                 : 36 min 30 s
Overall bit rate mode                    : Variable
Overall bit rate                         : 3 294 kb/s
Frame rate                               : 24.000 FPS
Writing application                      : mkvmerge v84.0 ('Sleeper') 64-bit
Writing library                          : libebml v1.4.5 + libmatroska v1.7.1

Video
ID                                       : 1
Format                                   : AVC
Format/Info                              : Advanced Video Codec
Format profile                           : [email protected]
Format settings                          : CABAC / 4 Ref Frames
Format settings, CABAC                   : Yes
Format settings, Reference frames        : 4 frames
Codec ID                                 : V_MPEG4/ISO/AVC
Duration                                 : 36 min 30 s
Bit rate mode                            : Variable
Bit rate                                 : 2 522 kb/s
Maximum bit rate                         : 6 375 kb/s
Width                                    : 1 280 pixels
Height                                   : 720 pixels
Display aspect ratio                     : 16:9
Frame rate mode                          : Constant
Frame rate                               : 24.000 FPS
Color space                              : YUV
Chroma subsampling                       : 4:2:0
Bit depth                                : 8 bits
Scan type                                : Progressive
Bits/(Pixel*Frame)                       : 0.114
Time code of first frame                 : 00:00:00:0000000000
Stream size                              : 658 MiB (77%)
Default                                  : Yes
Forced                                   : No
Color range                              : Limited
Color primaries                          : BT.709
Transfer characteristics                 : BT.709
Matrix coefficients                      : BT.709

Audio
ID                                       : 2
Format                                   : E-AC-3 JOC
Format/Info                              : Enhanced AC-3 with Joint Object Coding
Commercial name                          : Dolby Digital Plus with Dolby Atmos
Codec ID                                 : A_EAC3
Duration                                 : 36 min 30 s
Bit rate mode                            : Constant
Bit rate                                 : 768 kb/s
Channel(s)                               : 6 channels
Channel layout                           : L R C LFE Ls Rs
Sampling rate                            : 48.0 kHz
Frame rate                               : 31.250 FPS (1536 SPF)
Compression mode                         : Lossy
Stream size                              : 201 MiB (23%)
Language                                 : English
Service kind                             : Complete Main
Default                                  : Yes
Forced                                   : No
Complexity index                         : 16
Number of dynamic objects                : 15
Bed channel count                        : 1 channel
Bed channel configuration                : LFE

Text #1
ID                                       : 3
Format                                   : UTF-8
Codec ID                                 : S_TEXT/UTF8
Codec ID/Info                            : UTF-8 Plain Text
Duration                                 : 31 min 30 s
Bit rate                                 : 44 b/s
Frame rate                               : 0.179 FPS
Count of elements                        : 339
Stream size                              : 10.3 KiB (0%)
Language                                 : English
Default                                  : No
Forced                                   : No

Text #2
ID                                       : 4
Format                                   : UTF-8
Codec ID                                 : S_TEXT/UTF8
Codec ID/Info                            : UTF-8 Plain Text
Duration                                 : 32 min 28 s
Bit rate                                 : 56 b/s
Frame rate                               : 0.237 FPS
Count of elements                        : 462
Stream size                              : 13.4 KiB (0%)
Title                                    : SDH
Language                                 : English
Default                                  : No
Forced                                   : No

Text #3
ID                                       : 5
Format                                   : UTF-8
Codec ID                                 : S_TEXT/UTF8
Codec ID/Info                            : UTF-8 Plain Text
Duration                                 : 36 min 15 s
Bit rate                                 : 37 b/s
Frame rate                               : 0.160 FPS
Count of elements                        : 349
Stream size                              : 9.92 KiB (0%)
Language                                 : Czech
Default                                  : No
Forced                                   : No

Text #4
ID                                       : 6
Format                                   : UTF-8
Codec ID                                 : S_TEXT/UTF8
Codec ID/Info                            : UTF-8 Plain Text
Duration                                 : 36 min 15 s
Bit rate                                 : 37 b/s
Frame rate                               : 0.114 FPS
Count of elements                        : 247
Stream size                              : 9.83 KiB (0%)
Language                                 : Danish
Default                                  : No
Forced                                   : No

Text #5
ID                                       : 7
Format                                   : UTF-8
Codec ID                                 : S_TEXT/UTF8
Codec ID/Info                            : UTF-8 Plain Text
Duration                                 : 36 min 15 s
Bit rate                                 : 40 b/s
Frame rate                               : 0.157 FPS
Count of elements                        : 341
Stream size                              : 10.7 KiB (0%)
Language                                 : German
Default                                  : No
Forced                                   : No

Text #6
ID                                       : 8
Format                                   : UTF-8
Codec ID                                 : S_TEXT/UTF8
Codec ID/Info                            : UTF-8 Plain Text
Duration                                 : 36 min 15 s
Bit rate                                 : 72 b/s
Frame rate                               : 0.161 FPS
Count of elements                        : 350
Stream size                              : 19.2 KiB (0%)
Language                                 : Greek
Default                                  : No
Forced                                   : No

Text #7
ID                                       : 9
Format                                   : UTF-8
Codec ID                                 : S_TEXT/UTF8
Codec ID/Info                            : UTF-8 Plain Text
Duration                                 : 36 min 15 s
Bit rate                                 : 38 b/s
Frame rate                               : 0.160 FPS
Count of elements                        : 348
Stream size                              : 10.1 KiB (0%)
Title                                    : Spanish (Latin America)
Language                                 : Spanish (Latin America)
Default                                  : No
Forced                                   : No

Text #8
ID                                       : 10
Format                                   : UTF-8
Codec ID                                 : S_TEXT/UTF8
Codec ID/Info                            : UTF-8 Plain Text
Duration                                 : 36 min 15 s
Bit rate                                 : 39 b/s
Frame rate                               : 0.159 FPS
Count of elements                        : 347
Stream size                              : 10.5 KiB (0%)
Title                                    : Spanish (Spain)
Language                                 : Spanish (ES)
Default                                  : No
Forced                                   : No

Text #9
ID                                       : 11
Format                                   : UTF-8
Codec ID                                 : S_TEXT/UTF8
Codec ID/Info                            : UTF-8 Plain Text
Duration                                 : 36 min 15 s
Bit rate                                 : 39 b/s
Frame rate                               : 0.160 FPS
Count of elements                        : 348
Stream size                              : 10.4 KiB (0%)
Language                                 : Finnish
Default                                  : No
Forced                                   : No

Text #10
ID                                       : 12
Format                                   : UTF-8
Codec ID                                 : S_TEXT/UTF8
Codec ID/Info                            : UTF-8 Plain Text
Duration                                 : 36 min 15 s
Bit rate                                 : 41 b/s
Frame rate                               : 0.161 FPS
Count of elements                        : 350
Stream size                              : 10.9 KiB (0%)
Language                                 : French (FR)
Default                                  : No
Forced                                   : No

Text #11
ID                                       : 13
Format                                   : UTF-8
Codec ID                                 : S_TEXT/UTF8
Codec ID/Info                            : UTF-8 Plain Text
Duration                                 : 36 min 15 s
Bit rate                                 : 39 b/s
Frame rate                               : 0.160 FPS
Count of elements                        : 349
Stream size                              : 10.6 KiB (0%)
Language                                 : Hungarian
Default                                  : No
Forced                                   : No

Text #12
ID                                       : 14
Format                                   : UTF-8
Codec ID                                 : S_TEXT/UTF8
Codec ID/Info                            : UTF-8 Plain Text
Duration                                 : 36 min 15 s
Bit rate                                 : 40 b/s
Frame rate                               : 0.160 FPS
Count of elements                        : 348
Stream size                              : 10.7 KiB (0%)
Language                                 : Italian
Default                                  : No
Forced                                   : No

Text #13
ID                                       : 15
Format                                   : UTF-8
Codec ID                                 : S_TEXT/UTF8
Codec ID/Info                            : UTF-8 Plain Text
Duration                                 : 36 min 15 s
Bit rate                                 : 33 b/s
Frame rate                               : 0.161 FPS
Count of elements                        : 351
Stream size                              : 8.98 KiB (0%)
Language                                 : Japanese
Default                                  : No
Forced                                   : No

Text #14
ID                                       : 16
Format                                   : UTF-8
Codec ID                                 : S_TEXT/UTF8
Codec ID/Info                            : UTF-8 Plain Text
Duration                                 : 36 min 15 s
Bit rate                                 : 44 b/s
Frame rate                               : 0.161 FPS
Count of elements                        : 350
Stream size                              : 11.8 KiB (0%)
Language                                 : Korean
Default                                  : No
Forced                                   : No

Text #15
ID                                       : 17
Format                                   : UTF-8
Codec ID                                 : S_TEXT/UTF8
Codec ID/Info                            : UTF-8 Plain Text
Duration                                 : 36 min 15 s
Bit rate                                 : 40 b/s
Frame rate                               : 0.154 FPS
Count of elements                        : 334
Stream size                              : 10.7 KiB (0%)
Language                                 : Dutch
Default                                  : No
Forced                                   : No

Text #16
ID                                       : 18
Format                                   : UTF-8
Codec ID                                 : S_TEXT/UTF8
Codec ID/Info                            : UTF-8 Plain Text
Duration                                 : 36 min 15 s
Bit rate                                 : 36 b/s
Frame rate                               : 0.160 FPS
Count of elements                        : 348
Stream size                              : 9.73 KiB (0%)
Language                                 : Norwegian
Default                                  : No
Forced                                   : No

Text #17
ID                                       : 19
Format                                   : UTF-8
Codec ID                                 : S_TEXT/UTF8
Codec ID/Info                            : UTF-8 Plain Text
Duration                                 : 36 min 15 s
Bit rate                                 : 40 b/s
Frame rate                               : 0.160 FPS
Count of elements                        : 349
Stream size                              : 10.8 KiB (0%)
Language                                 : Polish
Default                                  : No
Forced                                   : No

Text #18
ID                                       : 20
Format                                   : UTF-8
Codec ID                                 : S_TEXT/UTF8
Codec ID/Info                            : UTF-8 Plain Text
Duration                                 : 36 min 15 s
Bit rate                                 : 41 b/s
Frame rate                               : 0.160 FPS
Count of elements                        : 348
Stream size                              : 11.1 KiB (0%)
Title                                    : Portuguese (Brazil)
Language                                 : Portuguese (BR)
Default                                  : No
Forced                                   : No

Text #19
ID                                       : 21
Format                                   : UTF-8
Codec ID                                 : S_TEXT/UTF8
Codec ID/Info                            : UTF-8 Plain Text
Duration                                 : 36 min 15 s
Bit rate                                 : 38 b/s
Frame rate                               : 0.160 FPS
Count of elements                        : 348
Stream size                              : 10.2 KiB (0%)
Title                                    : Portuguese (Portugal)
Language                                 : Portuguese (PT)
Default                                  : No
Forced                                   : No

Text #20
ID                                       : 22
Format                                   : UTF-8
Codec ID                                 : S_TEXT/UTF8
Codec ID/Info                            : UTF-8 Plain Text
Duration                                 : 36 min 15 s
Bit rate                                 : 40 b/s
Frame rate                               : 0.160 FPS
Count of elements                        : 348
Stream size                              : 10.8 KiB (0%)
Language                                 : Romanian
Default                                  : No
Forced                                   : No

Text #21
ID                                       : 23
Format                                   : UTF-8
Codec ID                                 : S_TEXT/UTF8
Codec ID/Info                            : UTF-8 Plain Text
Duration                                 : 36 min 15 s
Bit rate                                 : 37 b/s
Frame rate                               : 0.160 FPS
Count of elements                        : 349
Stream size                              : 10.0 KiB (0%)
Language                                 : Slovak
Default                                  : No
Forced                                   : No

Text #22
ID                                       : 24
Format                                   : UTF-8
Codec ID                                 : S_TEXT/UTF8
Codec ID/Info                            : UTF-8 Plain Text
Duration                                 : 36 min 15 s
Bit rate                                 : 37 b/s
Frame rate                               : 0.125 FPS
Count of elements                        : 272
Stream size                              : 9.84 KiB (0%)
Language                                 : Swedish
Default                                  : No
Forced                                   : No

Text #23
ID                                       : 25
Format                                   : UTF-8
Codec ID                                 : S_TEXT/UTF8
Codec ID/Info                            : UTF-8 Plain Text
Duration                                 : 36 min 15 s
Bit rate                                 : 39 b/s
Frame rate                               : 0.160 FPS
Count of elements                        : 348
Stream size                              : 10.5 KiB (0%)
Language                                 : Turkish
Default                                  : No
Forced                                   : No

Text #24
ID                                       : 26
Format                                   : UTF-8
Codec ID                                 : S_TEXT/UTF8
Codec ID/Info                            : UTF-8 Plain Text
Duration                                 : 36 min 15 s
Bit rate                                 : 32 b/s
Frame rate                               : 0.161 FPS
Count of elements                        : 351
Stream size                              : 8.58 KiB (0%)
Title                                    : Chinese (Hong Kong SAR China)
Language                                 : Chinese (HK)
Default                                  : No
Forced                                   : No

Text #25
ID                                       : 27
Format                                   : UTF-8
Codec ID                                 : S_TEXT/UTF8
Codec ID/Info                            : UTF-8 Plain Text
Duration                                 : 36 min 15 s
Bit rate                                 : 30 b/s
Frame rate                               : 0.159 FPS
Count of elements                        : 347
Stream size                              : 8.16 KiB (0%)
Title                                    : Chinese (Traditional)
Language                                 : Chinese (Traditional)
Default                                  : No
Forced                                   : No



Download
File Container: MKV
Video/Audio Codec: H264 (HIGH) EAC3
Video Resolution: 1280x720

1 Response to "[RR/NF/CU] The Acolyte S01E02 Revenge Justice 720p DSNP WEB-DL DDP5 1 H 264-NTb (860MB)"
06/05/24
13:24:20
ReadyPlayerOne

Thank You

Please Login to post a comment.
If you don't have any account, please Register.
  • Subscribe my Feeds
  • Facebook
Encoding Queue:  x264  x265

Latest Episodes

Popular Movies and TV Shows

  • Walker
  • WWE NXT
  • Reginald the Vampire
  • Coldplay Live in São Paulo
  • Pulp Fiction
  • Death Games
  • The Bold and the Beautiful
  • Inside No. 9
  • The Artifice Girl
  • Origin
  • The Primevals
  • The Young and the Restless
  • The Acolyte
  • Presumed Innocent
  • Dark Matter
  • Mysteries of the Terracotta Warriors
  • Ninja Terminator
  • Camille 2000
  • The Big Door Prize
  • Trying
  • Acapulco
  • How Music Got Free
  • Lost Soulz
  • The Beast in the Jungle
  • The Daily Show

Recent Comments

  • KissclTum: [url=https://kisstom.ru/prices]имплант с коронкой цена кисс [/url] Tegs: и...
  • Diggety247:

    BrokenHanded, Try using a DL manager.

  • BrokenHanded: clicknupload does not seem to work for past few days. keep getting an error saying the site is sendi...
  • Bud: Helps if you actually add these to the "Late Night with Seth Meyers" page too...
  • rambaldi70:

    Hy! Right now, my download speed : 1 Mb/s
    this is ok?
    Tx answer

  • Cinque_Persson: At 183 MB this had to be something completely different. In fact it's just the main actors commentin...
  • meyat74:

    my bad, should be full season

  • Oscar2:

    Halo "is" a good show

  • MeH:

    "one of the most impressive scenes"

  • rappet:

    Unfortunately, episode 2 not playing and episode 3 half missing (only 37 minutes long).

  • Anovani:

    Nice 1

  • shark:

    Will there be a sequel?

  • sjors:

    This release in in Russian with Russian subs. No English.

  • RapidRabbit98: I'll ask again Forged in Fire Series 11 episode 1 - anyone have it?

Archives