Sign Up   |   Sign In  
Doctor WhoSo Help Me ToddTotally Funny AnimalsNähtamatu võitlus8 Views of Lake BiwaShe Is ConannS.W.A.T.Yatagarasu: The Raven Does Not Choose Its MasterFire CountryOne LifeEasy RiderImaginaryYoung SheldonBlue BloodsRebusChallengers12.12: The DayAdagioStar Trek: DiscoverySugarGrey's AnatomyGodzilla x Kong: The New EmpireMothers' InstinctYou Can't Run ForeverOuter Range

Announcements

05/15

2024

1

Comments

X-Men 97 S01E10 Tolerance is Extinction Part 3 720p DSNP WEB-DL DD 5 1 Atmos H 264-playWEB
[RR/NF/CU]
Size: 1.2GB mkv H264 (HIGH) / EAC3  HD  1280x720

X-Men '97
File Information
[img]http://lookpic.com/cdn/i2/t/0515202414101825-1.jpg[/img]
[img]http://lookpic.com/cdn/i2/t/0515202414101825-2.jpg[/img]
[img]http://lookpic.com/cdn/i2/t/0515202414101825-3.jpg[/img]

General
Unique ID                                : 136696706444880406566352591254918886097 (0x66D6D3F963B194A8A2652F144D3172D1)
Complete name                            : X-Men 97 S01E10 Tolerance is Extinction Part 3 720p DSNP WEB-DL DD 5 1 Atmos H 264-playWEB.mkv
Format                                   : Matroska
Format version                           : Version 4
File size                                : 1.21 GiB
Duration                                 : 40 min 3 s
Overall bit rate mode                    : Variable
Overall bit rate                         : 4 321 kb/s
Frame rate                               : 24.000 FPS
Writing application                      : mkvmerge v84.0 ('Sleeper') 64-bit
Writing library                          : libebml v1.4.5 + libmatroska v1.7.1

Video
ID                                       : 1
Format                                   : AVC
Format/Info                              : Advanced Video Codec
Format profile                           : [email protected]
Format settings                          : CABAC / 4 Ref Frames
Format settings, CABAC                   : Yes
Format settings, Reference frames        : 4 frames
Codec ID                                 : V_MPEG4/ISO/AVC
Duration                                 : 40 min 3 s
Bit rate mode                            : Variable
Bit rate                                 : 3 547 kb/s
Maximum bit rate                         : 6 375 kb/s
Width                                    : 1 280 pixels
Height                                   : 720 pixels
Display aspect ratio                     : 16:9
Frame rate mode                          : Constant
Frame rate                               : 24.000 FPS
Color space                              : YUV
Chroma subsampling                       : 4:2:0
Bit depth                                : 8 bits
Scan type                                : Progressive
Bits/(Pixel*Frame)                       : 0.160
Time code of first frame                 : 00:00:00:0000000000
Stream size                              : 1 016 MiB (82%)
Default                                  : Yes
Forced                                   : No
Color range                              : Limited
Color primaries                          : BT.709
Transfer characteristics                 : BT.709
Matrix coefficients                      : BT.709

Audio
ID                                       : 2
Format                                   : E-AC-3 JOC
Format/Info                              : Enhanced AC-3 with Joint Object Coding
Commercial name                          : Dolby Digital Plus with Dolby Atmos
Codec ID                                 : A_EAC3
Duration                                 : 40 min 3 s
Bit rate mode                            : Constant
Bit rate                                 : 768 kb/s
Channel(s)                               : 6 channels
Channel layout                           : L R C LFE Ls Rs
Sampling rate                            : 48.0 kHz
Frame rate                               : 31.250 FPS (1536 SPF)
Compression mode                         : Lossy
Stream size                              : 220 MiB (18%)
Language                                 : English
Service kind                             : Complete Main
Default                                  : Yes
Forced                                   : No
Complexity index                         : 16
Number of dynamic objects                : 15
Bed channel count                        : 1 channel
Bed channel configuration                : LFE

Text #1
ID                                       : 3
Format                                   : UTF-8
Codec ID                                 : S_TEXT/UTF8
Codec ID/Info                            : UTF-8 Plain Text
Duration                                 : 39 min 56 s
Bit rate                                 : 54 b/s
Frame rate                               : 0.202 FPS
Count of elements                        : 485
Stream size                              : 16.0 KiB (0%)
Language                                 : Czech
Default                                  : No
Forced                                   : No

Text #2
ID                                       : 4
Format                                   : UTF-8
Codec ID                                 : S_TEXT/UTF8
Codec ID/Info                            : UTF-8 Plain Text
Duration                                 : 39 min 59 s
Bit rate                                 : 52 b/s
Frame rate                               : 0.145 FPS
Count of elements                        : 347
Stream size                              : 15.5 KiB (0%)
Language                                 : Danish
Default                                  : No
Forced                                   : No

Text #3
ID                                       : 5
Format                                   : UTF-8
Codec ID                                 : S_TEXT/UTF8
Codec ID/Info                            : UTF-8 Plain Text
Duration                                 : 39 min 56 s
Bit rate                                 : 60 b/s
Frame rate                               : 0.206 FPS
Count of elements                        : 494
Stream size                              : 17.6 KiB (0%)
Language                                 : German
Default                                  : No
Forced                                   : No

Text #4
ID                                       : 6
Format                                   : UTF-8
Codec ID                                 : S_TEXT/UTF8
Codec ID/Info                            : UTF-8 Plain Text
Duration                                 : 39 min 56 s
Bit rate                                 : 108 b/s
Frame rate                               : 0.207 FPS
Count of elements                        : 496
Stream size                              : 31.6 KiB (0%)
Language                                 : Greek
Default                                  : No
Forced                                   : No

Text #5
ID                                       : 7
Format                                   : UTF-8
Codec ID                                 : S_TEXT/UTF8
Codec ID/Info                            : UTF-8 Plain Text
Duration                                 : 38 min 28 s
Bit rate                                 : 54 b/s
Frame rate                               : 0.204 FPS
Count of elements                        : 472
Stream size                              : 15.3 KiB (0%)
Language                                 : English
Default                                  : No
Forced                                   : No

Text #6
ID                                       : 8
Format                                   : UTF-8
Codec ID                                 : S_TEXT/UTF8
Codec ID/Info                            : UTF-8 Plain Text
Duration                                 : 38 min 28 s
Bit rate                                 : 58 b/s
Frame rate                               : 0.221 FPS
Count of elements                        : 511
Stream size                              : 16.5 KiB (0%)
Title                                    : SDH
Language                                 : English
Default                                  : No
Forced                                   : No

Text #7
ID                                       : 9
Format                                   : UTF-8
Codec ID                                 : S_TEXT/UTF8
Codec ID/Info                            : UTF-8 Plain Text
Duration                                 : 39 min 56 s
Bit rate                                 : 58 b/s
Frame rate                               : 0.204 FPS
Count of elements                        : 490
Stream size                              : 17.2 KiB (0%)
Title                                    : Latin American
Language                                 : Spanish
Default                                  : No
Forced                                   : No

Text #8
ID                                       : 10
Format                                   : UTF-8
Codec ID                                 : S_TEXT/UTF8
Codec ID/Info                            : UTF-8 Plain Text
Duration                                 : 38 min 28 s
Bit rate                                 : 65 b/s
Frame rate                               : 0.232 FPS
Count of elements                        : 535
Stream size                              : 18.4 KiB (0%)
Language                                 : Spanish
Default                                  : No
Forced                                   : No

Text #9
ID                                       : 11
Format                                   : UTF-8
Codec ID                                 : S_TEXT/UTF8
Codec ID/Info                            : UTF-8 Plain Text
Duration                                 : 38 min 28 s
Bit rate                                 : 74 b/s
Frame rate                               : 0.284 FPS
Count of elements                        : 655
Stream size                              : 21.0 KiB (0%)
Title                                    : Latin American (SDH)
Language                                 : Spanish
Default                                  : No
Forced                                   : No

Text #10
ID                                       : 12
Format                                   : UTF-8
Codec ID                                 : S_TEXT/UTF8
Codec ID/Info                            : UTF-8 Plain Text
Duration                                 : 39 min 56 s
Bit rate                                 : 58 b/s
Frame rate                               : 0.206 FPS
Count of elements                        : 493
Stream size                              : 17.0 KiB (0%)
Title                                    : European
Language                                 : Spanish
Default                                  : No
Forced                                   : No

Text #11
ID                                       : 13
Format                                   : UTF-8
Codec ID                                 : S_TEXT/UTF8
Codec ID/Info                            : UTF-8 Plain Text
Duration                                 : 39 min 56 s
Bit rate                                 : 53 b/s
Frame rate                               : 0.204 FPS
Count of elements                        : 489
Stream size                              : 15.7 KiB (0%)
Language                                 : Finnish
Default                                  : No
Forced                                   : No

Text #12
ID                                       : 14
Format                                   : UTF-8
Codec ID                                 : S_TEXT/UTF8
Codec ID/Info                            : UTF-8 Plain Text
Duration                                 : 39 min 49 s
Bit rate                                 : 57 b/s
Frame rate                               : 0.215 FPS
Count of elements                        : 513
Stream size                              : 16.7 KiB (0%)
Title                                    : European
Language                                 : French
Default                                  : No
Forced                                   : No

Text #13
ID                                       : 15
Format                                   : UTF-8
Codec ID                                 : S_TEXT/UTF8
Codec ID/Info                            : UTF-8 Plain Text
Duration                                 : 39 min 56 s
Bit rate                                 : 59 b/s
Frame rate                               : 0.207 FPS
Count of elements                        : 495
Stream size                              : 17.5 KiB (0%)
Language                                 : Hungarian
Default                                  : No
Forced                                   : No

Text #14
ID                                       : 16
Format                                   : UTF-8
Codec ID                                 : S_TEXT/UTF8
Codec ID/Info                            : UTF-8 Plain Text
Duration                                 : 39 min 56 s
Bit rate                                 : 58 b/s
Frame rate                               : 0.204 FPS
Count of elements                        : 489
Stream size                              : 17.0 KiB (0%)
Language                                 : Italian
Default                                  : No
Forced                                   : No

Text #15
ID                                       : 17
Format                                   : UTF-8
Codec ID                                 : S_TEXT/UTF8
Codec ID/Info                            : UTF-8 Plain Text
Duration                                 : 39 min 56 s
Bit rate                                 : 55 b/s
Frame rate                               : 0.183 FPS
Count of elements                        : 438
Stream size                              : 16.3 KiB (0%)
Language                                 : Japanese
Default                                  : No
Forced                                   : No

Text #16
ID                                       : 18
Format                                   : UTF-8
Codec ID                                 : S_TEXT/UTF8
Codec ID/Info                            : UTF-8 Plain Text
Duration                                 : 39 min 56 s
Bit rate                                 : 60 b/s
Frame rate                               : 0.208 FPS
Count of elements                        : 498
Stream size                              : 17.7 KiB (0%)
Language                                 : Korean
Default                                  : No
Forced                                   : No

Text #17
ID                                       : 19
Format                                   : UTF-8
Codec ID                                 : S_TEXT/UTF8
Codec ID/Info                            : UTF-8 Plain Text
Duration                                 : 39 min 56 s
Bit rate                                 : 56 b/s
Frame rate                               : 0.182 FPS
Count of elements                        : 436
Stream size                              : 16.6 KiB (0%)
Language                                 : Dutch
Default                                  : No
Forced                                   : No

Text #18
ID                                       : 20
Format                                   : UTF-8
Codec ID                                 : S_TEXT/UTF8
Codec ID/Info                            : UTF-8 Plain Text
Duration                                 : 39 min 56 s
Bit rate                                 : 52 b/s
Frame rate                               : 0.202 FPS
Count of elements                        : 485
Stream size                              : 15.2 KiB (0%)
Language                                 : Norwegian
Default                                  : No
Forced                                   : No

Text #19
ID                                       : 21
Format                                   : UTF-8
Codec ID                                 : S_TEXT/UTF8
Codec ID/Info                            : UTF-8 Plain Text
Duration                                 : 39 min 56 s
Bit rate                                 : 58 b/s
Frame rate                               : 0.203 FPS
Count of elements                        : 486
Stream size                              : 17.1 KiB (0%)
Language                                 : Polish
Default                                  : No
Forced                                   : No

Text #20
ID                                       : 22
Format                                   : UTF-8
Codec ID                                 : S_TEXT/UTF8
Codec ID/Info                            : UTF-8 Plain Text
Duration                                 : 39 min 56 s
Bit rate                                 : 60 b/s
Frame rate                               : 0.206 FPS
Count of elements                        : 493
Stream size                              : 17.8 KiB (0%)
Title                                    : Brazilian
Language                                 : Portuguese
Default                                  : No
Forced                                   : No

Text #21
ID                                       : 23
Format                                   : UTF-8
Codec ID                                 : S_TEXT/UTF8
Codec ID/Info                            : UTF-8 Plain Text
Duration                                 : 38 min 32 s
Bit rate                                 : 72 b/s
Frame rate                               : 0.300 FPS
Count of elements                        : 694
Stream size                              : 20.5 KiB (0%)
Title                                    : Brazilian (SDH)
Language                                 : Portuguese
Default                                  : No
Forced                                   : No

Text #22
ID                                       : 24
Format                                   : UTF-8
Codec ID                                 : S_TEXT/UTF8
Codec ID/Info                            : UTF-8 Plain Text
Duration                                 : 39 min 56 s
Bit rate                                 : 59 b/s
Frame rate                               : 0.206 FPS
Count of elements                        : 493
Stream size                              : 17.5 KiB (0%)
Title                                    : European
Language                                 : Portuguese
Default                                  : No
Forced                                   : No

Text #23
ID                                       : 25
Format                                   : UTF-8
Codec ID                                 : S_TEXT/UTF8
Codec ID/Info                            : UTF-8 Plain Text
Duration                                 : 39 min 56 s
Bit rate                                 : 58 b/s
Frame rate                               : 0.203 FPS
Count of elements                        : 487
Stream size                              : 17.0 KiB (0%)
Language                                 : Romanian
Default                                  : No
Forced                                   : No

Text #24
ID                                       : 26
Format                                   : UTF-8
Codec ID                                 : S_TEXT/UTF8
Codec ID/Info                            : UTF-8 Plain Text
Duration                                 : 39 min 56 s
Bit rate                                 : 51 b/s
Frame rate                               : 0.200 FPS
Count of elements                        : 480
Stream size                              : 15.1 KiB (0%)
Language                                 : Slovak
Default                                  : No
Forced                                   : No

Text #25
ID                                       : 27
Format                                   : UTF-8
Codec ID                                 : S_TEXT/UTF8
Codec ID/Info                            : UTF-8 Plain Text
Duration                                 : 39 min 56 s
Bit rate                                 : 49 b/s
Frame rate                               : 0.142 FPS
Count of elements                        : 341
Stream size                              : 14.5 KiB (0%)
Language                                 : Swedish
Default                                  : No
Forced                                   : No

Text #26
ID                                       : 28
Format                                   : UTF-8
Codec ID                                 : S_TEXT/UTF8
Codec ID/Info                            : UTF-8 Plain Text
Duration                                 : 39 min 56 s
Bit rate                                 : 56 b/s
Frame rate                               : 0.203 FPS
Count of elements                        : 487
Stream size                              : 16.6 KiB (0%)
Language                                 : Turkish
Default                                  : No
Forced                                   : No

Text #27
ID                                       : 29
Format                                   : UTF-8
Codec ID                                 : S_TEXT/UTF8
Codec ID/Info                            : UTF-8 Plain Text
Duration                                 : 39 min 56 s
Bit rate                                 : 51 b/s
Frame rate                               : 0.208 FPS
Count of elements                        : 498
Stream size                              : 15.1 KiB (0%)
Title                                    : Hong Kong
Language                                 : Chinese
Default                                  : No
Forced                                   : No

Text #28
ID                                       : 30
Format                                   : UTF-8
Codec ID                                 : S_TEXT/UTF8
Codec ID/Info                            : UTF-8 Plain Text
Duration                                 : 39 min 56 s
Bit rate                                 : 47 b/s
Frame rate                               : 0.208 FPS
Count of elements                        : 498
Stream size                              : 14.0 KiB (0%)
Title                                    : Traditional
Language                                 : Chinese
Default                                  : No
Forced                                   : No

Menu
00:00:04.000                             : en:Recap
00:01:35.958                             : en:Scene 1
00:01:36.000                             : en:Intro
00:02:47.875                             : en:Scene 2
00:38:50.167                             : en:Credits



Download
File Container: MKV
Video/Audio Codec: H264 (HIGH) EAC3
Video Resolution: 1280x720

1 Response to "[RR/NF/CU] X-Men 97 S01E10 Tolerance is Extinction Part 3 720p DSNP WEB-DL DD 5 1 Atmos H 264-playWEB (1.2GB)"
05/15/24
15:06:46
ReadyPlayerOne

Thank You

Please Login to post a comment.
If you don't have any account, please Register.
  • Subscribe my Feeds
  • Facebook
Encoding Queue:  x264  x265

Latest Episodes

Popular Movies and TV Shows

  • Doctor Who
  • So Help Me Todd
  • Totally Funny Animals
  • Nähtamatu võitlus
  • 8 Views of Lake Biwa
  • She Is Conann
  • S.W.A.T.
  • Yatagarasu: The Raven Does Not Choose Its Master
  • Fire Country
  • One Life
  • Easy Rider
  • Imaginary
  • Young Sheldon
  • Blue Bloods
  • Rebus
  • Challengers
  • 12.12: The Day
  • Adagio
  • Star Trek: Discovery
  • Sugar
  • Grey's Anatomy
  • Godzilla x Kong: The New Empire
  • Mothers' Instinct
  • You Can't Run Forever
  • Outer Range

Recent Comments

  • 23d1:

    not episode 4 it is episode 3

  • 23d1:

    not episode 4 it is episode 3

  • 23d1:

    not episode 4 it is episode 3

  • 23d1:

    not episode 4 it is episode 3

  • aaroz88:

    Trimas!!

  • mptoo: I don't often ask this, infact this would be the first time, but I don't suppose there is any chance...
  • Cinque_Persson:

    btw:
    quote /quote
    is broken

  • gabrielsyme:

    Sorry but where is the clicknupload link?

  • mike1204:

    Is this episode doomed??? The RMX avi version is only 12 minutes long!!!

  • waanaabe:

    Could PUSHING DAISES kindly be upoaded to CU? THANKS!

  • mentalityx:

    Thx bloke.

Archives