Sign Up   |   Sign In  
Inside No. 9RebusHidden CityDoctor WhoFletch LivesFletchS.W.A.T.A Gentleman in MoscowMaestroShe Is ConannNähtamatu võitlus8 Views of Lake BiwaYoung SheldonBlue BloodsFire CountryEasy RiderChallengers12.12: The DaySugarGrey's AnatomyStar Trek: DiscoveryGodzilla x Kong: The New EmpireMothers' InstinctAdagioElsbeth

Announcements

05/10

2024

1

Comments

Young Sheldon S07E11 A Little Snip and Teaching Old Dogs 1080p AMZN WEB-DL DDP5 1 H 264-NTb
[RR/NF/CU]
Size: 1.3GB mkv H264 (HIGH) / EAC3  HD  1920x1080

Young Sheldon
File Information
[img]http://lookpic.com/cdn/i2/t/0510202406153633-1.jpg[/img]
[img]http://lookpic.com/cdn/i2/t/0510202406153633-2.jpg[/img]
[img]http://lookpic.com/cdn/i2/t/0510202406153633-3.jpg[/img]

General
Unique ID                                : 190776190839647528285650812147437036160 (0x8F8628699B28F315DF2AC08972D26280)
Complete name                            : Young Sheldon S07E11 A Little Snip and Teaching Old Dogs 1080p AMZN WEB-DL DDP5 1 H 264-NTb.mkv
Format                                   : Matroska
Format version                           : Version 4
File size                                : 1.32 GiB
Duration                                 : 18 min 44 s
Overall bit rate                         : 10.1 Mb/s
Frame rate                               : 23.976 FPS
Writing application                      : mkvmerge v81.0 ('Milliontown') 64-bit
Writing library                          : libebml v1.4.4 + libmatroska v1.7.1

Video
ID                                       : 1
Format                                   : AVC
Format/Info                              : Advanced Video Codec
Format profile                           : High@L4
Format settings                          : CABAC / 4 Ref Frames
Format settings, CABAC                   : Yes
Format settings, Reference frames        : 4 frames
Codec ID                                 : V_MPEG4/ISO/AVC
Duration                                 : 18 min 44 s
Bit rate mode                            : Constant
Bit rate                                 : 9 447 kb/s
Nominal bit rate                         : 10 000 kb/s
Width                                    : 1 920 pixels
Height                                   : 1 080 pixels
Display aspect ratio                     : 16:9
Frame rate mode                          : Constant
Frame rate                               : 23.976 (24000/1001) FPS
Color space                              : YUV
Chroma subsampling                       : 4:2:0
Bit depth                                : 8 bits
Scan type                                : Progressive
Bits/(Pixel*Frame)                       : 0.190
Stream size                              : 1.24 GiB (94%)
Default                                  : Yes
Forced                                   : No
Color range                              : Limited
Color primaries                          : BT.709
Transfer characteristics                 : BT.709
Matrix coefficients                      : BT.709

Audio
ID                                       : 2
Format                                   : E-AC-3
Format/Info                              : Enhanced AC-3
Commercial name                          : Dolby Digital Plus
Codec ID                                 : A_EAC3
Duration                                 : 18 min 44 s
Bit rate mode                            : Constant
Bit rate                                 : 640 kb/s
Channel(s)                               : 6 channels
Channel layout                           : L R C LFE Ls Rs
Sampling rate                            : 48.0 kHz
Frame rate                               : 31.250 FPS (1536 SPF)
Compression mode                         : Lossy
Stream size                              : 85.8 MiB (6%)
Language                                 : English (US)
Service kind                             : Complete Main
Default                                  : Yes
Forced                                   : No

Text #1
ID                                       : 3
Format                                   : UTF-8
Codec ID                                 : S_TEXT/UTF8
Codec ID/Info                            : UTF-8 Plain Text
Duration                                 : 18 min 30 s
Bit rate                                 : 105 b/s
Frame rate                               : 0.434 FPS
Count of elements                        : 482
Stream size                              : 14.3 KiB (0%)
Language                                 : English (US)
Default                                  : No
Forced                                   : No

Text #2
ID                                       : 4
Format                                   : UTF-8
Codec ID                                 : S_TEXT/UTF8
Codec ID/Info                            : UTF-8 Plain Text
Duration                                 : 18 min 30 s
Bit rate                                 : 111 b/s
Frame rate                               : 0.457 FPS
Count of elements                        : 507
Stream size                              : 15.1 KiB (0%)
Title                                    : SDH
Language                                 : English (US)
Default                                  : No
Forced                                   : No



Download
File Container: MKV
Video/Audio Codec: H264 (HIGH) EAC3
Video Resolution: 1920x1080

1 Response to "[RR/NF/CU] Young Sheldon S07E11 A Little Snip and Teaching Old Dogs 1080p AMZN WEB-DL DDP5 1 H 264-NTb (1.3GB)"
05/10/24
14:39:14
ReadyPlayerOne

Thank You

Please Login to post a comment.
If you don't have any account, please Register.
  • Subscribe my Feeds
  • Facebook
Encoding Queue:  x264  x265

Latest Episodes

Popular Movies and TV Shows

  • Inside No. 9
  • Rebus
  • Hidden City
  • Doctor Who
  • Fletch Lives
  • Fletch
  • S.W.A.T.
  • A Gentleman in Moscow
  • Maestro
  • She Is Conann
  • Nähtamatu võitlus
  • 8 Views of Lake Biwa
  • Young Sheldon
  • Blue Bloods
  • Fire Country
  • Easy Rider
  • Challengers
  • 12.12: The Day
  • Sugar
  • Grey's Anatomy
  • Star Trek: Discovery
  • Godzilla x Kong: The New Empire
  • Mothers' Instinct
  • Adagio
  • Elsbeth

Recent Comments

  • 23d1:

    not episode 4 it is episode 3

  • 23d1:

    not episode 4 it is episode 3

  • 23d1:

    not episode 4 it is episode 3

  • 23d1:

    not episode 4 it is episode 3

  • aaroz88:

    Trimas!!

  • mptoo: I don't often ask this, infact this would be the first time, but I don't suppose there is any chance...
  • Cinque_Persson:

    btw:
    quote /quote
    is broken

  • gabrielsyme:

    Sorry but where is the clicknupload link?

  • mike1204:

    Is this episode doomed??? The RMX avi version is only 12 minutes long!!!

  • waanaabe:

    Could PUSHING DAISES kindly be upoaded to CU? THANKS!

  • mentalityx:

    Thx bloke.

Archives